  0
SECTION
  2
HEADER
  9
$ACADVER
  1
AC1015
  9
$ACADMAINTVER
 70
    13
  9
$DWGCODEPAGE
  3
ANSI_1252
  9
$INSBASE
 10
0.0
 20
0.0
 30
0.0
  9
$EXTMIN
 10
-2.214386414112539
 20
-29.04232527741326
 30
0.0
  9
$EXTMAX
 10
130.8291421367856
 20
58.09530168576128
 30
0.0
  9
$LIMMIN
 10
0.0
 20
0.0
  9
$LIMMAX
 10
12.0
 20
9.0
  9
$ORTHOMODE
 70
     1
  9
$REGENMODE
 70
     1
  9
$FILLMODE
 70
     1
  9
$QTEXTMODE
 70
     0
  9
$MIRRTEXT
 70
     1
  9
$LTSCALE
 40
5.0
  9
$ATTMODE
 70
     1
  9
$TEXTSIZE
 40
3.0
  9
$TRACEWID
 40
0.05
  9
$TEXTSTYLE
  7
ROMANS
  9
$CLAYER
  8
dims
  9
$CELTYPE
  6
BYLAYER
  9
$CECOLOR
 62
   256
  9
$CELTSCALE
 40
1.0
  9
$DISPSILH
 70
     0
  9
$DIMSCALE
 40
1.0
  9
$DIMASZ
 40
2.992499999999999
  9
$DIMEXO
 40
1.0
  9
$DIMDLI
 40
0.38
  9
$DIMRND
 40
0.0
  9
$DIMDLE
 40
0.0
  9
$DIMEXE
 40
2.0
  9
$DIMTP
 40
0.0
  9
$DIMTM
 40
0.0
  9
$DIMTXT
 40
1.992499999999999
  9
$DIMCEN
 40
0.09
  9
$DIMTSZ
 40
0.0
  9
$DIMTOL
 70
     0
  9
$DIMLIM
 70
     0
  9
$DIMTIH
 70
     1
  9
$DIMTOH
 70
     1
  9
$DIMSE1
 70
     0
  9
$DIMSE2
 70
     0
  9
$DIMTAD
 70
     0
  9
$DIMZIN
 70
     0
  9
$DIMBLK
  1

  9
$DIMASO
 70
     1
  9
$DIMSHO
 70
     1
  9
$DIMPOST
  1

  9
$DIMAPOST
  1

  9
$DIMALT
 70
     0
  9
$DIMALTD
 70
     2
  9
$DIMALTF
 40
25.4
  9
$DIMLFAC
 40
1.0
  9
$DIMTOFL
 70
     0
  9
$DIMTVP
 40
0.0
  9
$DIMTIX
 70
     0
  9
$DIMSOXD
 70
     0
  9
$DIMSAH
 70
     0
  9
$DIMBLK1
  1

  9
$DIMBLK2
  1

  9
$DIMSTYLE
  2
STANDARD
  9
$DIMCLRD
 70
     0
  9
$DIMCLRE
 70
     0
  9
$DIMCLRT
 70
     0
  9
$DIMTFAC
 40
1.0
  9
$DIMGAP
 40
0.09
  9
$DIMJUST
 70
     0
  9
$DIMSD1
 70
     0
  9
$DIMSD2
 70
     0
  9
$DIMTOLJ
 70
     1
  9
$DIMTZIN
 70
     0
  9
$DIMALTZ
 70
     0
  9
$DIMALTTZ
 70
     0
  9
$DIMUPT
 70
     0
  9
$DIMDEC
 70
     2
  9
$DIMTDEC
 70
     2
  9
$DIMALTU
 70
     2
  9
$DIMALTTD
 70
     2
  9
$DIMTXSTY
  7
ROMANS
  9
$DIMAUNIT
 70
     0
  9
$DIMADEC
 70
     0
  9
$DIMALTRND
 40
0.0
  9
$DIMAZIN
 70
     0
  9
$DIMDSEP
 70
    46
  9
$DIMATFIT
 70
     3
  9
$DIMFRAC
 70
     0
  9
$DIMLDRBLK
  1

  9
$DIMLUNIT
 70
     5
  9
$DIMLWD
 70
    -2
  9
$DIMLWE
 70
    -2
  9
$DIMTMOVE
 70
     0
  9
$LUNITS
 70
     4
  9
$LUPREC
 70
     4
  9
$SKETCHINC
 40
0.1
  9
$FILLETRAD
 40
0.125
  9
$AUNITS
 70
     0
  9
$AUPREC
 70
     0
  9
$MENU
  1
.
  9
$ELEVATION
 40
0.0
  9
$PELEVATION
 40
0.0
  9
$THICKNESS
 40
0.0
  9
$LIMCHECK
 70
     0
  9
$CHAMFERA
 40
0.5
  9
$CHAMFERB
 40
0.5
  9
$CHAMFERC
 40
0.25
  9
$CHAMFERD
 40
0.7853981633974483
  9
$SKPOLY
 70
     0
  9
$TDCREATE
 40
2451375.734437430
  9
$TDUCREATE
 40
2451375.901104097
  9
$TDUPDATE
 40
2453832.514697534
  9
$TDUUPDATE
 40
2453832.681364201
  9
$TDINDWG
 40
1.5012819213
  9
$TDUSRTIMER
 40
1.5012819213
  9
$USRTIMER
 70
     1
  9
$ANGBASE
 50
0.0
  9
$ANGDIR
 70
     0
  9
$PDMODE
 70
     0
  9
$PDSIZE
 40
0.0
  9
$PLINEWID
 40
0.0
  9
$SPLFRAME
 70
     0
  9
$SPLINETYPE
 70
     6
  9
$SPLINESEGS
 70
     8
  9
$HANDSEED
  5
152D
  9
$SURFTAB1
 70
     6
  9
$SURFTAB2
 70
     6
  9
$SURFTYPE
 70
     6
  9
$SURFU
 70
     6
  9
$SURFV
 70
     6
  9
$UCSBASE
  2

  9
$UCSNAME
  2

  9
$UCSORG
 10
0.0
 20
0.0
 30
0.0
  9
$UCSXDIR
 10
1.0
 20
0.0
 30
0.0
  9
$UCSYDIR
 10
0.0
 20
1.0
 30
0.0
  9
$UCSORTHOREF
  2

  9
$UCSORTHOVIEW
 70
     0
  9
$UCSORGTOP
 10
0.0
 20
0.0
 30
0.0
  9
$UCSORGBOTTOM
 10
0.0
 20
0.0
 30
0.0
  9
$UCSORGLEFT
 10
0.0
 20
0.0
 30
0.0
  9
$UCSORGRIGHT
 10
0.0
 20
0.0
 30
0.0
  9
$UCSORGFRONT
 10
0.0
 20
0.0
 30
0.0
  9
$UCSORGBACK
 10
0.0
 20
0.0
 30
0.0
  9
$PUCSBASE
  2

  9
$PUCSNAME
  2

  9
$PUCSORG
 10
0.0
 20
0.0
 30
0.0
  9
$PUCSXDIR
 10
1.0
 20
0.0
 30
0.0
  9
$PUCSYDIR
 10
0.0
 20
1.0
 30
0.0
  9
$PUCSORTHOREF
  2

  9
$PUCSORTHOVIEW
 70
     0
  9
$PUCSORGTOP
 10
0.0
 20
0.0
 30
0.0
  9
$PUCSORGBOTTOM
 10
0.0
 20
0.0
 30
0.0
  9
$PUCSORGLEFT
 10
0.0
 20
0.0
 30
0.0
  9
$PUCSORGRIGHT
 10
0.0
 20
0.0
 30
0.0
  9
$PUCSORGFRONT
 10
0.0
 20
0.0
 30
0.0
  9
$PUCSORGBACK
 10
0.0
 20
0.0
 30
0.0
  9
$USERI1
 70
     0
  9
$USERI2
 70
     0
  9
$USERI3
 70
     0
  9
$USERI4
 70
     0
  9
$USERI5
 70
     0
  9
$USERR1
 40
0.0
  9
$USERR2
 40
0.0
  9
$USERR3
 40
0.0
  9
$USERR4
 40
0.0
  9
$USERR5
 40
0.0
  9
$WORLDVIEW
 70
     1
  9
$SHADEDGE
 70
     3
  9
$SHADEDIF
 70
    70
  9
$TILEMODE
 70
     1
  9
$MAXACTVP
 70
    48
  9
$PINSBASE
 10
0.0
 20
0.0
 30
0.0
  9
$PLIMCHECK
 70
     0
  9
$PEXTMIN
 10
1.000000000000000E+20
 20
1.000000000000000E+20
 30
1.000000000000000E+20
  9
$PEXTMAX
 10
-1.000000000000000E+20
 20
-1.000000000000000E+20
 30
-1.000000000000000E+20
  9
$PLIMMIN
 10
0.0
 20
0.0
  9
$PLIMMAX
 10
12.0
 20
9.0
  9
$UNITMODE
 70
     0
  9
$VISRETAIN
 70
     1
  9
$PLINEGEN
 70
     0
  9
$PSLTSCALE
 70
     1
  9
$TREEDEPTH
 70
  3020
  9
$CMLSTYLE
  2
STANDARD
  9
$CMLJUST
 70
     0
  9
$CMLSCALE
 40
1.0
  9
$PROXYGRAPHICS
 70
     1
  9
$MEASUREMENT
 70
     0
  9
$CELWEIGHT
370
    -1
  9
$ENDCAPS
280
     0
  9
$JOINSTYLE
280
     0
  9
$LWDISPLAY
290
     0
  9
$INSUNITS
 70
     0
  9
$HYPERLINKBASE
  1

  9
$STYLESHEET
  1

  9
$XEDIT
290
     1
  9
$CEPSNTYPE
380
     0
  9
$PSTYLEMODE
290
     1
  9
$FINGERPRINTGUID
  2
{DC5233F3-28FB-4FD6-8A7C-45A235223B2C}
  9
$VERSIONGUID
  2
{17168E7E-1B11-41EB-B02F-BC7980F2FF52}
  9
$EXTNAMES
290
     1
  9
$PSVPSCALE
 40
0.0
  9
$OLESTARTUP
290
     0
  0
ENDSEC
  0
SECTION
  2
CLASSES
  0
CLASS
  1
LWPOLYLINE
  2
AcDbPolyline
  3
AutoCAD 2000
 90
    32768
280
     0
281
     1
  0
CLASS
  1
ACDBDICTIONARYWDFLT
  2
AcDbDictionaryWithDefault
  3
AutoCAD 2000
 90
        0
280
     0
281
     0
  0
CLASS
  1
ACDBPLACEHOLDER
  2
AcDbPlaceHolder
  3
AutoCAD 2000
 90
        0
280
     0
281
     0
  0
CLASS
  1
LAYOUT
  2
AcDbLayout
  3
AutoCAD 2000
 90
        0
280
     0
281
     0
  0
CLASS
  1
DICTIONARYVAR
  2
AcDbDictionaryVar
  3
AutoCAD 2000
 90
        0
280
     0
281
     0
  0
ENDSEC
  0
SECTION
  2
TABLES
  0
TABLE
  2
VPORT
  5
8
330
0
100
AcDbSymbolTable
 70
     2
  0
VPORT
  5
152C
330
8
100
AcDbSymbolTableRecord
100
AcDbViewportTableRecord
  2
*Active
 70
     0
 10
0.0
 20
0.0
 11
1.0
 21
1.0
 12
57.45957204640088
 22
14.5287791090776
 13
0.0
 23
0.0
 14
0.5
 24
0.5
 15
0.5
 25
0.5
 16
0.0
 26
0.0
 36
1.0
 17
0.0
 27
0.0
 37
0.0
 40
88.11549254804502
 41
1.762081784386616
 42
50.0
 43
0.0
 44
0.0
 50
0.0
 51
0.0
 71
     0
 72
   100
 73
     1
 74
     1
 75
     0
 76
     0
 77
     0
 78
     0
281
     0
 65
     1
110
0.0
120
0.0
130
0.0
111
1.0
121
0.0
131
0.0
112
0.0
122
1.0
132
0.0
 79
     0
146
0.0
  0
ENDTAB
  0
TABLE
  2
LTYPE
  5
5
330
0
100
AcDbSymbolTable
 70
     2
  0
LTYPE
  5
12
330
5
100
AcDbSymbolTableRecord
100
AcDbLinetypeTableRecord
  2
BYBLOCK
 70
     0
  3

 72
    65
 73
     0
 40
0.0
  0
LTYPE
  5
13
330
5
100
AcDbSymbolTableRecord
100
AcDbLinetypeTableRecord
  2
BYLAYER
 70
     0
  3

 72
    65
 73
     0
 40
0.0
  0
LTYPE
  5
14
330
5
100
AcDbSymbolTableRecord
100
AcDbLinetypeTableRecord
  2
CONTINUOUS
 70
     0
  3
Solid line
 72
    65
 73
     0
 40
0.0
  0
LTYPE
  5
3A
330
5
100
AcDbSymbolTableRecord
100
AcDbLinetypeTableRecord
  2
HIDDEN
 70
     0
  3
Hidden __ __ __ __ __ __ __ __ __ __ __ __ __ _
 72
    65
 73
     2
 40
0.375
 49
0.25
 74
     0
 49
-0.125
 74
     0
  0
ENDTAB
  0
TABLE
  2
LAYER
  5
2
330
0
100
AcDbSymbolTable
 70
    13
  0
LAYER
  5
E
330
2
100
AcDbSymbolTableRecord
100
AcDbLayerTableRecord
  2
0
 70
     0
 62
     7
  6
CONTINUOUS
370
    -3
390
229
  0
LAYER
  5
274
330
2
100
AcDbSymbolTableRecord
100
AcDbLayerTableRecord
  2
Defpoints
 70
     0
 62
     7
  6
CONTINUOUS
290
     0
370
    -3
390
229
  0
LAYER
  5
103B
330
2
100
AcDbSymbolTableRecord
100
AcDbLayerTableRecord
  2
end_plugs
 70
     0
 62
     2
  6
CONTINUOUS
370
    -3
390
229
  0
LAYER
  5
103C
330
2
100
AcDbSymbolTableRecord
100
AcDbLayerTableRecord
  2
end_caps
 70
     0
 62
     6
  6
CONTINUOUS
370
    -3
390
229
  0
LAYER
  5
103D
330
2
100
AcDbSymbolTableRecord
100
AcDbLayerTableRecord
  2
sonotube
 70
     0
 62
     5
  6
CONTINUOUS
370
    -3
390
229
  0
LAYER
  5
103E
330
2
100
AcDbSymbolTableRecord
100
AcDbLayerTableRecord
  2
port
 70
     0
 62
     3
  6
CONTINUOUS
370
    -3
390
229
  0
LAYER
  5
103F
330
2
100
AcDbSymbolTableRecord
100
AcDbLayerTableRecord
  2
legs_base
 70
     0
 62
     1
  6
CONTINUOUS
370
    -3
390
229
  0
LAYER
  5
1040
330
2
100
AcDbSymbolTableRecord
100
AcDbLayerTableRecord
  2
driver
 70
     0
 62
     5
  6
CONTINUOUS
370
    -3
390
229
  0
LAYER
  5
11A4
330
2
100
AcDbSymbolTableRecord
100
AcDbLayerTableRecord
  2
terminals
 70
     0
 62
     5
  6
CONTINUOUS
370
    -3
390
229
  0
LAYER
  5
11AA
330
2
100
AcDbSymbolTableRecord
100
AcDbLayerTableRecord
  2
gasket foam
 70
     0
 62
    -2
  6
CONTINUOUS
370
    -3
390
229
  0
LAYER
  5
11B9
330
2
100
AcDbSymbolTableRecord
100
AcDbLayerTableRecord
  2
dims
 70
     0
 62
     7
  6
CONTINUOUS
370
    -3
390
229
  0
LAYER
  5
121C
330
2
100
AcDbSymbolTableRecord
100
AcDbLayerTableRecord
  2
hasket rubber
 70
     0
 62
     9
  6
CONTINUOUS
370
    -3
390
229
  0
LAYER
  5
12A5
330
2
100
AcDbSymbolTableRecord
100
AcDbLayerTableRecord
  2
grille
 70
     0
 62
     4
  6
CONTINUOUS
370
    -3
390
229
  0
ENDTAB
  0
TABLE
  2
STYLE
  5
3
330
0
100
AcDbSymbolTable
 70
     2
  0
STYLE
  5
F
330
3
100
AcDbSymbolTableRecord
100
AcDbTextStyleTableRecord
  2
STANDARD
 70
     0
 40
0.0
 41
1.0
 50
0.0
 71
     0
 42
0.2
  3
txt
  4

  0
STYLE
  5
4F
330
3
100
AcDbSymbolTableRecord
100
AcDbTextStyleTableRecord
  2
ROMANS
 70
     0
 40
0.0
 41
1.0
 50
0.0
 71
     0
 42
3.0
  3
romans.shx
  4

  0
ENDTAB
  0
TABLE
  2
VIEW
  5
6
330
0
100
AcDbSymbolTable
 70
     0
  0
ENDTAB
  0
TABLE
  2
UCS
  5
7
330
0
100
AcDbSymbolTable
 70
     0
  0
ENDTAB
  0
TABLE
  2
APPID
  5
9
330
0
100
AcDbSymbolTable
 70
     1
  0
APPID
  5
10
330
9
100
AcDbSymbolTableRecord
100
AcDbRegAppTableRecord
  2
ACAD
 70
     0
  0
ENDTAB
  0
TABLE
  2
DIMSTYLE
  5
A
330
0
100
AcDbSymbolTable
 70
     1
100
AcDbDimStyleTable
 71
     1
340
1D
  0
DIMSTYLE
105
1D
102
{ACAD_REACTORS
330
1383
330
1391
330
139F
330
13AD
330
13BB
330
13C9
330
13D7
330
13F3
330
1401
330
140F
330
146E
330
14CB
330
14D9
330
14F5
330
1505
102
}
330
A
100
AcDbSymbolTableRecord
100
AcDbDimStyleTableRecord
  2
STANDARD
 70
     0
 41
2.992499999999999
 42
1.0
 44
2.0
140
1.992499999999999
271
     2
272
     2
277
     5
340
4F
  0
ENDTAB
  0
TABLE
  2
BLOCK_RECORD
  5
1
330
0
100
AcDbSymbolTable
 70
    18
  0
BLOCK_RECORD
  5
18
330
1
100
AcDbSymbolTableRecord
100
AcDbBlockTableRecord
  2
*MODEL_SPACE
340
22C
  0
BLOCK_RECORD
  5
15
330
1
100
AcDbSymbolTableRecord
100
AcDbBlockTableRecord
  2
*PAPER_SPACE
340
22D
  0
BLOCK_RECORD
  5
1045
330
1
100
AcDbSymbolTableRecord
100
AcDbBlockTableRecord
  2
driver_side_view
340
0
310
2800000020000000200000000100080000000000000400000000000000000000000000000000000000000000000080000080000000808000800000008000800080800000C0C0C000C0DCC000F0CAA6000020400000206000002080000020A0000020C0000020E00000400000004020000040400000406000004080000040A0
310
000040C0000040E00000600000006020000060400000606000006080000060A0000060C0000060E00000800000008020000080400000806000008080000080A0000080C0000080E00000A0000000A0200000A0400000A0600000A0800000A0A00000A0C00000A0E00000C0000000C0200000C0400000C0600000C0800000C0
310
A00000C0C00000C0E00000E0000000E0200000E0400000E0600000E0800000E0A00000E0C00000E0E00040000000400020004000400040006000400080004000A0004000C0004000E00040200000402020004020400040206000402080004020A0004020C0004020E000404000004040200040404000404060004040800040
310
40A0004040C0004040E00040600000406020004060400040606000406080004060A0004060C0004060E00040800000408020004080400040806000408080004080A0004080C0004080E00040A0000040A0200040A0400040A0600040A0800040A0A00040A0C00040A0E00040C0000040C0200040C0400040C0600040C08000
310
40C0A00040C0C00040C0E00040E0000040E0200040E0400040E0600040E0800040E0A00040E0C00040E0E00080000000800020008000400080006000800080008000A0008000C0008000E00080200000802020008020400080206000802080008020A0008020C0008020E00080400000804020008040400080406000804080
310
008040A0008040C0008040E00080600000806020008060400080606000806080008060A0008060C0008060E00080800000808020008080400080806000808080008080A0008080C0008080E00080A0000080A0200080A0400080A0600080A0800080A0A00080A0C00080A0E00080C0000080C0200080C0400080C0600080C0
310
800080C0A00080C0C00080C0E00080E0000080E0200080E0400080E0600080E0800080E0A00080E0C00080E0E000C0000000C0002000C0004000C0006000C0008000C000A000C000C000C000E000C0200000C0202000C0204000C0206000C0208000C020A000C020C000C020E000C0400000C0402000C0404000C0406000C0
310
408000C040A000C040C000C040E000C0600000C0602000C0604000C0606000C0608000C060A000C060C000C060E000C0800000C0802000C0804000C0806000C0808000C080A000C080C000C080E000C0A00000C0A02000C0A04000C0A06000C0A08000C0A0A000C0A0C000C0A0E000C0C00000C0C02000C0C04000C0C06000
310
C0C08000C0C0A000F0FBFF00A4A0A000808080000000FF0000FF000000FFFF00FF000000FF00FF00FFFF0000FFFFFF0000000000000000000000000000000000000000000000000000000000000000000000000000000000000000000000000000000000000000000000000000000000000000000000000000000000000000
310
00000000000000000000000000000000000000000000000000000000000000000000000000000000000000000000000000000000000000000000000000000000000000000000000000000000000000000000000000000000000000000000000000000000000000000000000000000000000000000000000000000000000000
310
000000000000000000000000000000000000000000000000000000000000000000000000000000000000000000000000000000FFFFFFFFFFFFFFFFFFFFFFFFFFFFFFFFFFFFFFFFFFFFFFFFFFFFFFFFFFFF0000FFFFFFFFFFFFFFFFFFFFFFFFFFFFFFFFFFFFFFFFFFFFFFFFFFFFFFFFFFFF00000000FF000000FFFF00000000
310
00FF0000FF0000000000FFFF000000FF000000000000FF0000000000FFFF000000FF0000FF000000FFFF0000000000FF000000000000FFFF000000000000FFFF00FF0000FF00FFFF000000000000FFFF000000000000FFFF0000FFFF00000000FFFF0000FFFF00000000FFFF0000FFFF000000000000FFFFFFFFFFFFFFFFFF
310
FFFFFFFFFFFFFFFFFFFFFFFFFFFFFFFFFF000000000000FFFF000000FFFFFFFFFFFFFFFFFFFFFFFFFFFFFFFF000000FFFF0000000000000000FFFFFFFF00FFFFFFFFFFFFFFFFFFFFFFFF00FFFFFFFF000000000000000000000000FFFFFFFFFFFFFFFFFFFFFFFFFFFFFFFFFFFF000000000000000000000000000000FF0000
310
000000000000000000000000FF00000000000000000000000000000000FF0000000000000000000000000000FF00000000000000000000000000000000FF0000000000000000000000000000FF00000000000000000000000000000000FF0000000000000000000000000000FF00000000000000000000000000000000FFFF
310
FFFFFFFFFFFFFFFFFFFFFFFFFFFF000000000000000000000000000000000000FFFF0000000000000000FFFF00000000000000000000000000000000000000000000FFFFFFFFFFFFFFFF0000000000000000000000000000000000000000000000000000000000000000000000000000000000000000000000000000000000
310
00000000000000000000000000000000000000000000000000000000000000000000000000000000000000000000000000000000000000000000000000000000000000000000000000000000000000000000000000000000000000000000000000000000000000000000000000000000000000000000000000000000000000
310
0000000000000000000000000000000000000000000000000000000000000000000000000000000000000000000000000000000000000000
102
{BLKREFS
331
117F
102
}
  0
BLOCK_RECORD
  5
1180
330
1
100
AcDbSymbolTableRecord
100
AcDbBlockTableRecord
  2
driver_face_view
340
0
310
2800000020000000200000000100080000000000000400000000000000000000000000000000000000000000000080000080000000808000800000008000800080800000C0C0C000C0DCC000F0CAA6000020400000206000002080000020A0000020C0000020E00000400000004020000040400000406000004080000040A0
310
000040C0000040E00000600000006020000060400000606000006080000060A0000060C0000060E00000800000008020000080400000806000008080000080A0000080C0000080E00000A0000000A0200000A0400000A0600000A0800000A0A00000A0C00000A0E00000C0000000C0200000C0400000C0600000C0800000C0
310
A00000C0C00000C0E00000E0000000E0200000E0400000E0600000E0800000E0A00000E0C00000E0E00040000000400020004000400040006000400080004000A0004000C0004000E00040200000402020004020400040206000402080004020A0004020C0004020E000404000004040200040404000404060004040800040
310
40A0004040C0004040E00040600000406020004060400040606000406080004060A0004060C0004060E00040800000408020004080400040806000408080004080A0004080C0004080E00040A0000040A0200040A0400040A0600040A0800040A0A00040A0C00040A0E00040C0000040C0200040C0400040C0600040C08000
310
40C0A00040C0C00040C0E00040E0000040E0200040E0400040E0600040E0800040E0A00040E0C00040E0E00080000000800020008000400080006000800080008000A0008000C0008000E00080200000802020008020400080206000802080008020A0008020C0008020E00080400000804020008040400080406000804080
310
008040A0008040C0008040E00080600000806020008060400080606000806080008060A0008060C0008060E00080800000808020008080400080806000808080008080A0008080C0008080E00080A0000080A0200080A0400080A0600080A0800080A0A00080A0C00080A0E00080C0000080C0200080C0400080C0600080C0
310
800080C0A00080C0C00080C0E00080E0000080E0200080E0400080E0600080E0800080E0A00080E0C00080E0E000C0000000C0002000C0004000C0006000C0008000C000A000C000C000C000E000C0200000C0202000C0204000C0206000C0208000C020A000C020C000C020E000C0400000C0402000C0404000C0406000C0
310
408000C040A000C040C000C040E000C0600000C0602000C0604000C0606000C0608000C060A000C060C000C060E000C0800000C0802000C0804000C0806000C0808000C080A000C080C000C080E000C0A00000C0A02000C0A04000C0A06000C0A08000C0A0A000C0A0C000C0A0E000C0C00000C0C02000C0C04000C0C06000
310
C0C08000C0C0A000F0FBFF00A4A0A000808080000000FF0000FF000000FFFF00FF000000FF00FF00FFFF0000FFFFFF00000000000000000000000000000000000000000000000000000000000000000000000000000000000000000000000000000000000000000000000000000000000000000000000000000000000000FF
310
FFFFFFFF000000000000000000000000000000000000000000FFFFFFFFFFFFFFFFFFFFFFFFFF000000000000000000000000000000000000FFFFFFFFFFFFFF0000000000FFFFFFFF00000000000000000000000000000000FFFFFF0000000000FFFFFF000000FFFFFFFF00000000000000000000000000FFFF00000000FFFF
310
FF000000FFFF000000FFFFFFFF00000000000000000000FFFF000000FFFF0000000000000000FFFF000000FFFF000000000000000000FFFFFF00FFFF000000000000000000000000FFFF00FFFFFF0000000000000000FFFF0000FF0000000000000000000000000000FF0000FFFF00000000000000FFFF0000FF0000000000
310
0000000000000000000000FF00FFFFFF0000000000FFFFFF0000FF00000000000000000000000000000000FF00FFFFFF0000000000FFFF000000FF0000000000000000000000000000000000FF00FFFF0000000000FFFF0000FF000000000000000000000000000000000000FF00FFFFFF00000000FFFF0000FF0000000000
310
00000000000000000000000000FF00FFFFFF00000000FFFF00FF0000000000000000000000000000000000000000FF00FFFFFF000000FFFF00FF0000000000000000000000000000000000000000FF00FFFFFF000000FFFF00FF0000000000000000000000000000000000000000FF00FFFFFF000000FFFF0000FF00000000
310
0000000000000000000000000000FF00FFFFFF00000000FFFF0000FF000000000000000000000000000000000000FF00FFFFFF00000000FFFFFF0000FF00000000000000000000000000000000FF0000FFFF000000000000FFFF0000FF00000000000000000000000000000000FF00FFFFFF00000000000000FFFF0000FF00
310
00000000000000000000000000FF0000FFFF0000000000000000FFFFFF00FFFF000000000000000000000000FFFF00FFFFFF000000000000000000FFFF000000FFFFFF00000000000000FFFF000000FFFF0000000000000000000000FFFF0000000000FFFF000000FFFF000000FFFFFFFF000000000000000000000000FFFF
310
FF0000000000FFFFFF000000FFFFFFFFFF00000000000000000000000000FFFFFFFFFFFFFF0000000000FFFFFFFFFF00000000000000000000000000000000FFFFFFFFFFFFFFFFFFFFFFFFFFFF0000000000000000000000000000000000000000000000FFFFFFFFFFFFFF0000000000000000000000000000000000000000
310
0000000000000000000000000000000000000000000000000000000000000000000000000000000000000000000000000000000000000000
102
{BLKREFS
331
11A2
102
}
  0
BLOCK_RECORD
  5
1384
330
1
100
AcDbSymbolTableRecord
100
AcDbBlockTableRecord
  2
*D2
340
0
  0
BLOCK_RECORD
  5
1392
330
1
100
AcDbSymbolTableRecord
100
AcDbBlockTableRecord
  2
*D3
340
0
  0
BLOCK_RECORD
  5
13A0
330
1
100
AcDbSymbolTableRecord
100
AcDbBlockTableRecord
  2
*D4
340
0
  0
BLOCK_RECORD
  5
13AE
330
1
100
AcDbSymbolTableRecord
100
AcDbBlockTableRecord
  2
*D5
340
0
  0
BLOCK_RECORD
  5
13BC
330
1
100
AcDbSymbolTableRecord
100
AcDbBlockTableRecord
  2
*D6
340
0
  0
BLOCK_RECORD
  5
13CA
330
1
100
AcDbSymbolTableRecord
100
AcDbBlockTableRecord
  2
*D7
340
0
  0
BLOCK_RECORD
  5
13D8
330
1
100
AcDbSymbolTableRecord
100
AcDbBlockTableRecord
  2
*D8
340
0
  0
BLOCK_RECORD
  5
13F4
330
1
100
AcDbSymbolTableRecord
100
AcDbBlockTableRecord
  2
*D9
340
0
  0
BLOCK_RECORD
  5
1402
330
1
100
AcDbSymbolTableRecord
100
AcDbBlockTableRecord
  2
*D10
340
0
  0
BLOCK_RECORD
  5
1410
330
1
100
AcDbSymbolTableRecord
100
AcDbBlockTableRecord
  2
*D11
340
0
  0
BLOCK_RECORD
  5
146F
330
1
100
AcDbSymbolTableRecord
100
AcDbBlockTableRecord
  2
*D12
340
0
  0
BLOCK_RECORD
  5
14CC
330
1
100
AcDbSymbolTableRecord
100
AcDbBlockTableRecord
  2
*D13
340
0
  0
BLOCK_RECORD
  5
14DA
330
1
100
AcDbSymbolTableRecord
100
AcDbBlockTableRecord
  2
*D14
340
0
  0
BLOCK_RECORD
  5
14F6
330
1
100
AcDbSymbolTableRecord
100
AcDbBlockTableRecord
  2
*D16
340
0
  0
BLOCK_RECORD
  5
1506
330
1
100
AcDbSymbolTableRecord
100
AcDbBlockTableRecord
  2
*D17
340
0
  0
ENDTAB
  0
ENDSEC
  0
SECTION
  2
BLOCKS
  0
BLOCK
  5
19
330
18
100
AcDbEntity
  8
0
100
AcDbBlockBegin
  2
*MODEL_SPACE
 70
     0
 10
0.0
 20
0.0
 30
0.0
  3
*MODEL_SPACE
  1

  0
ENDBLK
  5
1A
330
18
100
AcDbEntity
  8
0
100
AcDbBlockEnd
  0
BLOCK
  5
16
330
15
100
AcDbEntity
 67
     1
  8
0
100
AcDbBlockBegin
  2
*PAPER_SPACE
 70
     0
 10
0.0
 20
0.0
 30
0.0
  3
*PAPER_SPACE
  1

  0
ENDBLK
  5
17
330
15
100
AcDbEntity
 67
     1
  8
0
100
AcDbBlockEnd
  0
BLOCK
  5
1046
330
1045
100
AcDbEntity
  8
0
100
AcDbBlockBegin
  2
driver_side_view
 70
     0
 10
0.0
 20
0.0
 30
0.0
  3
driver_side_view
  1

  0
LINE
  5
1048
330
1045
100
AcDbEntity
  8
0
100
AcDbLine
 10
7.6875
 20
-8.4625
 30
0.0
 11
-7.6875
 21
-8.462499999999996
 31
0.0
  0
LINE
  5
1049
330
1045
100
AcDbEntity
  8
0
100
AcDbLine
 10
7.6875
 20
-8.0875
 30
0.0
 11
-7.6875
 21
-8.087499999999996
 31
0.0
  0
LINE
  5
104A
330
1045
100
AcDbEntity
  8
0
100
AcDbLine
 10
-7.6875
 20
-8.462499999999996
 30
0.0
 11
-7.6875
 21
-8.087499999999996
 31
0.0
  0
LINE
  5
104B
330
1045
100
AcDbEntity
  8
0
  6
HIDDEN
100
AcDbLine
 10
-7.531250000000007
 20
-8.087499999999996
 30
0.0
 11
-7.53125
 21
-8.462499999999996
 31
0.0
  0
LINE
  5
104C
330
1045
100
AcDbEntity
  8
0
  6
Continuous
100
AcDbLine
 10
0.9375
 20
-5.011564594399834
 30
0.0
 11
-0.9375
 21
-5.011564594399841
 31
0.0
  0
LINE
  5
104D
330
1045
100
AcDbEntity
  8
0
  6
Continuous
100
AcDbLine
 10
0.9375
 20
-4.962500000000011
 30
0.0
 11
-0.9375
 21
-4.962500000000003
 31
0.0
  0
LINE
  5
104E
330
1045
100
AcDbEntity
  8
0
  6
Continuous
100
AcDbLine
 10
0.9375
 20
-4.775000000000011
 30
0.0
 11
-0.9375
 21
-4.775000000000011
 31
0.0
  0
LINE
  5
104F
330
1045
100
AcDbEntity
  8
0
  6
Continuous
100
AcDbLine
 10
0.9375
 20
-4.681250000000011
 30
0.0
 11
-0.9375
 21
-4.681250000000011
 31
0.0
  0
LINE
  5
1050
330
1045
100
AcDbEntity
  8
0
  6
Continuous
100
AcDbLine
 10
0.9375
 20
-4.431250000000011
 30
0.0
 11
-0.9375
 21
-4.431250000000011
 31
0.0
  0
LINE
  5
1051
330
1045
100
AcDbEntity
  8
0
100
AcDbLine
 10
4.0
 20
-3.624999999999998
 30
0.0
 11
-4.0
 21
-3.624999999999998
 31
0.0
  0
LINE
  5
1052
330
1045
100
AcDbEntity
  8
0
100
AcDbLine
 10
3.875
 20
-3.749999999999998
 30
0.0
 11
-3.875
 21
-3.749999999999998
 31
0.0
  0
LINE
  5
1053
330
1045
100
AcDbEntity
  8
0
100
AcDbLine
 10
3.4375
 20
-3.874999999999998
 30
0.0
 11
-3.4375
 21
-3.874999999999998
 31
0.0
  0
LINE
  5
1054
330
1045
100
AcDbEntity
  8
0
100
AcDbLine
 10
-4.0
 20
-1.124999999999998
 30
0.0
 11
4.0
 21
-1.125000000000001
 31
0.0
  0
LINE
  5
1055
330
1045
100
AcDbEntity
  8
0
100
AcDbLine
 10
3.875
 20
-1.000000000000001
 30
0.0
 11
-3.875
 21
-0.9999999999999982
 31
0.0
  0
LINE
  5
1056
330
1045
100
AcDbEntity
  8
0
100
AcDbLine
 10
-2.125
 20
0.0000000000000018
 30
0.0
 11
2.125
 21
-0.0000000000000018
 31
0.0
  0
LINE
  5
1057
330
1045
100
AcDbEntity
  8
0
100
AcDbLine
 10
-3.875
 20
-3.749999999999998
 30
0.0
 11
-4.0
 21
-3.624999999999998
 31
0.0
  0
LINE
  5
1058
330
1045
100
AcDbEntity
  8
0
  6
Continuous
100
AcDbLine
 10
-3.9375
 20
-4.962500000000011
 30
0.0
 11
-3.6875
 21
-4.962500000000011
 31
0.0
  0
LINE
  5
1059
330
1045
100
AcDbEntity
  8
0
  6
Continuous
100
AcDbLine
 10
-3.9375
 20
-4.962500000000011
 30
0.0
 11
-3.6875
 21
-4.962500000000011
 31
0.0
  0
POLYLINE
  5
105A
330
1045
100
AcDbEntity
  8
0
  6
Continuous
100
AcDb2dPolyline
 66
     1
 10
0.0
 20
0.0
 30
0.0
 70
     4
 40
0.03125
 41
0.03125
 75
     6
  0
VERTEX
  5
105B
330
105A
100
AcDbEntity
  8
0
  6
Continuous
100
AcDbVertex
100
AcDb2dVertex
 10
-4.504674919826854
 20
-5.564646864978366
 30
0.0
 70
    16
  0
VERTEX
  5
105C
330
105A
100
AcDbEntity
  8
0
  6
Continuous
100
AcDbVertex
100
AcDb2dVertex
 10
-4.504674919826854
 20
-5.564646864978366
 30
0.0
 70
     8
  0
VERTEX
  5
105D
330
105A
100
AcDbEntity
  8
0
  6
Continuous
100
AcDbVertex
100
AcDb2dVertex
 10
-4.468640642191957
 20
-5.549524034571897
 30
0.0
 70
     8
  0
VERTEX
  5
105E
330
105A
100
AcDbEntity
  8
0
  6
Continuous
100
AcDbVertex
100
AcDb2dVertex
 10
-4.435818396987144
 20
-5.537721511036439
 30
0.0
 70
     8
  0
VERTEX
  5
105F
330
105A
100
AcDbEntity
  8
0
  6
Continuous
100
AcDbVertex
100
AcDb2dVertex
 10
-4.405933644020699
 20
-5.528895754829912
 30
0.0
 70
     8
  0
VERTEX
  5
1060
330
105A
100
AcDbEntity
  8
0
  6
Continuous
100
AcDbVertex
100
AcDb2dVertex
 10
-4.378711843100902
 20
-5.522703226410223
 30
0.0
 70
     8
  0
VERTEX
  5
1061
330
105A
100
AcDbEntity
  8
0
  6
Continuous
100
AcDbVertex
100
AcDb2dVertex
 10
-4.353878454036035
 20
-5.518800386235271
 30
0.0
 70
     8
  0
VERTEX
  5
1062
330
105A
100
AcDbEntity
  8
0
  6
Continuous
100
AcDbVertex
100
AcDb2dVertex
 10
-4.331158936634395
 20
-5.516843694762963
 30
0.0
 70
     8
  0
VERTEX
  5
1063
330
105A
100
AcDbEntity
  8
0
  6
Continuous
100
AcDbVertex
100
AcDb2dVertex
 10
-4.310278750704242
 20
-5.516489612451218
 30
0.0
 70
     8
  0
VERTEX
  5
1064
330
105A
100
AcDbEntity
  8
0
  6
Continuous
100
AcDbVertex
100
AcDb2dVertex
 10
-4.290963356053879
 20
-5.517394599757929
 30
0.0
 70
     8
  0
VERTEX
  5
1065
330
105A
100
AcDbEntity
  8
0
  6
Continuous
100
AcDbVertex
100
AcDb2dVertex
 10
-4.272940727099694
 20
-5.519240065476539
 30
0.0
 70
     8
  0
VERTEX
  5
1066
330
105A
100
AcDbEntity
  8
0
  6
Continuous
100
AcDbVertex
100
AcDb2dVertex
 10
-4.255948896690441
 20
-5.521807211742585
 30
0.0
 70
     8
  0
VERTEX
  5
1067
330
105A
100
AcDbEntity
  8
0
  6
Continuous
100
AcDbVertex
100
AcDb2dVertex
 10
-4.239728412283
 20
-5.524902189027139
 30
0.0
 70
     8
  0
VERTEX
  5
1068
330
105A
100
AcDbEntity
  8
0
  6
Continuous
100
AcDbVertex
100
AcDb2dVertex
 10
-4.224019821334238
 20
-5.528331147801262
 30
0.0
 70
     8
  0
VERTEX
  5
1069
330
105A
100
AcDbEntity
  8
0
  6
Continuous
100
AcDbVertex
100
AcDb2dVertex
 10
-4.20856367130105
 20
-5.531900238536019
 30
0.0
 70
     8
  0
VERTEX
  5
106A
330
105A
100
AcDbEntity
  8
0
  6
Continuous
100
AcDbVertex
100
AcDb2dVertex
 10
-4.193100509640288
 20
-5.535415611702491
 30
0.0
 70
     8
  0
VERTEX
  5
106B
330
105A
100
AcDbEntity
  8
0
  6
Continuous
100
AcDbVertex
100
AcDb2dVertex
 10
-4.177370883808819
 20
-5.538683417771737
 30
0.0
 70
     8
  0
VERTEX
  5
106C
330
105A
100
AcDbEntity
  8
0
  6
Continuous
100
AcDbVertex
100
AcDb2dVertex
 10
-4.161115341263538
 20
-5.541509807214817
 30
0.0
 70
     8
  0
VERTEX
  5
106D
330
105A
100
AcDbEntity
  8
0
  6
Continuous
100
AcDbVertex
100
AcDb2dVertex
 10
-4.144120008906341
 20
-5.543736352804502
 30
0.0
 70
     8
  0
VERTEX
  5
106E
330
105A
100
AcDbEntity
  8
0
  6
Continuous
100
AcDbVertex
100
AcDb2dVertex
 10
-4.126353331419338
 20
-5.54534631652031
 30
0.0
 70
     8
  0
VERTEX
  5
106F
330
105A
100
AcDbEntity
  8
0
  6
Continuous
100
AcDbVertex
100
AcDb2dVertex
 10
-4.10782933292964
 20
-5.546358382643456
 30
0.0
 70
     8
  0
VERTEX
  5
1070
330
105A
100
AcDbEntity
  8
0
  6
Continuous
100
AcDbVertex
100
AcDb2dVertex
 10
-4.0885620375644
 20
-5.546791235455154
 30
0.0
 70
     8
  0
VERTEX
  5
1071
330
105A
100
AcDbEntity
  8
0
  6
Continuous
100
AcDbVertex
100
AcDb2dVertex
 10
-4.068565469450732
 20
-5.546663559236607
 30
0.0
 70
     8
  0
VERTEX
  5
1072
330
105A
100
AcDbEntity
  8
0
  6
Continuous
100
AcDbVertex
100
AcDb2dVertex
 10
-4.047853652715772
 20
-5.545994038269038
 30
0.0
 70
     8
  0
VERTEX
  5
1073
330
105A
100
AcDbEntity
  8
0
  6
Continuous
100
AcDbVertex
100
AcDb2dVertex
 10
-4.026440611486677
 20
-5.54480135683366
 30
0.0
 70
     8
  0
VERTEX
  5
1074
330
105A
100
AcDbEntity
  8
0
  6
Continuous
100
AcDbVertex
100
AcDb2dVertex
 10
-4.004340369890549
 20
-5.543104199211684
 30
0.0
 70
     8
  0
VERTEX
  5
1075
330
105A
100
AcDbEntity
  8
0
  6
Continuous
100
AcDbVertex
100
AcDb2dVertex
 10
-3.981603571616361
 20
-5.540923585223596
 30
0.0
 70
     8
  0
VERTEX
  5
1076
330
105A
100
AcDbEntity
  8
0
  6
Continuous
100
AcDbVertex
100
AcDb2dVertex
 10
-3.95842733860033
 20
-5.53828987684699
 30
0.0
 70
     8
  0
VERTEX
  5
1077
330
105A
100
AcDbEntity
  8
0
  6
Continuous
100
AcDbVertex
100
AcDb2dVertex
 10
-3.935045412340514
 20
-5.535235771598737
 30
0.0
 70
     8
  0
VERTEX
  5
1078
330
105A
100
AcDbEntity
  8
0
  6
Continuous
100
AcDbVertex
100
AcDb2dVertex
 10
-3.911691534334963
 20
-5.531793966995694
 30
0.0
 70
     8
  0
VERTEX
  5
1079
330
105A
100
AcDbEntity
  8
0
  6
Continuous
100
AcDbVertex
100
AcDb2dVertex
 10
-3.888599446081741
 20
-5.527997160554734
 30
0.0
 70
     8
  0
VERTEX
  5
107A
330
105A
100
AcDbEntity
  8
0
  6
Continuous
100
AcDbVertex
100
AcDb2dVertex
 10
-3.86600288907887
 20
-5.523878049792729
 30
0.0
 70
     8
  0
VERTEX
  5
107B
330
105A
100
AcDbEntity
  8
0
  6
Continuous
100
AcDbVertex
100
AcDb2dVertex
 10
-3.84413560482443
 20
-5.519469332226529
 30
0.0
 70
     8
  0
VERTEX
  5
107C
330
105A
100
AcDbEntity
  8
0
  6
Continuous
100
AcDbVertex
100
AcDb2dVertex
 10
-3.823231334816455
 20
-5.514803705373013
 30
0.0
 70
     8
  0
VERTEX
  5
107D
330
105A
100
AcDbEntity
  8
0
  6
Continuous
100
AcDbVertex
100
AcDb2dVertex
 10
-3.803457593812666
 20
-5.509927879984703
 30
0.0
 70
     8
  0
VERTEX
  5
107E
330
105A
100
AcDbEntity
  8
0
  6
Continuous
100
AcDbVertex
100
AcDb2dVertex
 10
-3.784716989609393
 20
-5.504944619756722
 30
0.0
 70
     8
  0
VERTEX
  5
107F
330
105A
100
AcDbEntity
  8
0
  6
Continuous
100
AcDbVertex
100
AcDb2dVertex
 10
-3.766845903262648
 20
-5.49997070161986
 30
0.0
 70
     8
  0
VERTEX
  5
1080
330
105A
100
AcDbEntity
  8
0
  6
Continuous
100
AcDbVertex
100
AcDb2dVertex
 10
-3.749680715828446
 20
-5.495122902504904
 30
0.0
 70
     8
  0
VERTEX
  5
1081
330
105A
100
AcDbEntity
  8
0
  6
Continuous
100
AcDbVertex
100
AcDb2dVertex
 10
-3.733057808362772
 20
-5.490517999342644
 30
0.0
 70
     8
  0
VERTEX
  5
1082
330
105A
100
AcDbEntity
  8
0
  6
Continuous
100
AcDbVertex
100
AcDb2dVertex
 10
-3.71681356192164
 20
-5.486272769063861
 30
0.0
 70
     8
  0
VERTEX
  5
1083
330
105A
100
AcDbEntity
  8
0
  6
Continuous
100
AcDbVertex
100
AcDb2dVertex
 10
-3.700784357561047
 20
-5.482503988599342
 30
0.0
 70
     8
  0
VERTEX
  5
1084
330
105A
100
AcDbEntity
  8
0
  6
Continuous
100
AcDbVertex
100
AcDb2dVertex
 10
-3.68480657633701
 20
-5.479328434879876
 30
0.0
 70
     8
  0
VERTEX
  5
1085
330
105A
100
AcDbEntity
  8
0
  6
Continuous
100
AcDbVertex
100
AcDb2dVertex
 10
-3.668751660495345
 20
-5.476826294731923
 30
0.0
 70
     8
  0
VERTEX
  5
1086
330
105A
100
AcDbEntity
  8
0
  6
Continuous
100
AcDbVertex
100
AcDb2dVertex
 10
-3.65263129704121
 20
-5.474931394564679
 30
0.0
 70
     8
  0
VERTEX
  5
1087
330
105A
100
AcDbEntity
  8
0
  6
Continuous
100
AcDbVertex
100
AcDb2dVertex
 10
-3.636492234169566
 20
-5.473540970682998
 30
0.0
 70
     8
  0
VERTEX
  5
1088
330
105A
100
AcDbEntity
  8
0
  6
Continuous
100
AcDbVertex
100
AcDb2dVertex
 10
-3.620381220075373
 20
-5.472552259391763
 30
0.0
 70
     8
  0
VERTEX
  5
1089
330
105A
100
AcDbEntity
  8
0
  6
Continuous
100
AcDbVertex
100
AcDb2dVertex
 10
-3.604345002953621
 20
-5.471862496995827
 30
0.0
 70
     8
  0
VERTEX
  5
108A
330
105A
100
AcDbEntity
  8
0
  6
Continuous
100
AcDbVertex
100
AcDb2dVertex
 10
-3.588430330999273
 20
-5.471368919800072
 30
0.0
 70
     8
  0
VERTEX
  5
108B
330
105A
100
AcDbEntity
  8
0
  6
Continuous
100
AcDbVertex
100
AcDb2dVertex
 10
-3.572683952407302
 20
-5.470968764109352
 30
0.0
 70
     8
  0
VERTEX
  5
108C
330
105A
100
AcDbEntity
  8
0
  6
Continuous
100
AcDbVertex
100
AcDb2dVertex
 10
-3.557152615372686
 20
-5.470559266228535
 30
0.0
 70
     8
  0
VERTEX
  5
108D
330
105A
100
AcDbEntity
  8
0
  6
Continuous
100
AcDbVertex
100
AcDb2dVertex
 10
-3.541886184689033
 20
-5.470047783127194
 30
0.0
 70
     8
  0
VERTEX
  5
108E
330
105A
100
AcDbEntity
  8
0
  6
Continuous
100
AcDbVertex
100
AcDb2dVertex
 10
-3.526946991544562
 20
-5.469382154433661
 30
0.0
 70
     8
  0
VERTEX
  5
108F
330
105A
100
AcDbEntity
  8
0
  6
Continuous
100
AcDbVertex
100
AcDb2dVertex
 10
-3.512400483726182
 20
-5.46852034044099
 30
0.0
 70
     8
  0
VERTEX
  5
1090
330
105A
100
AcDbEntity
  8
0
  6
Continuous
100
AcDbVertex
100
AcDb2dVertex
 10
-3.49831210902073
 20
-5.467420301442205
 30
0.0
 70
     8
  0
VERTEX
  5
1091
330
105A
100
AcDbEntity
  8
0
  6
Continuous
100
AcDbVertex
100
AcDb2dVertex
 10
-3.484747315215116
 20
-5.466039997730357
 30
0.0
 70
     8
  0
VERTEX
  5
1092
330
105A
100
AcDbEntity
  8
0
  6
Continuous
100
AcDbVertex
100
AcDb2dVertex
 10
-3.471771550096207
 20
-5.464337389598485
 30
0.0
 70
     8
  0
VERTEX
  5
1093
330
105A
100
AcDbEntity
  8
0
  6
Continuous
100
AcDbVertex
100
AcDb2dVertex
 10
-3.459450261450882
 20
-5.462270437339627
 30
0.0
 70
     8
  0
VERTEX
  5
1094
330
105A
100
AcDbEntity
  8
0
  6
Continuous
100
AcDbVertex
100
AcDb2dVertex
 10
-3.447848897066009
 20
-5.459797101246822
 30
0.0
 70
     8
  0
VERTEX
  5
1095
330
105A
100
AcDbEntity
  8
0
  6
Continuous
100
AcDbVertex
100
AcDb2dVertex
 10
-3.437014984511506
 20
-5.456881180469553
 30
0.0
 70
     8
  0
VERTEX
  5
1096
330
105A
100
AcDbEntity
  8
0
  6
Continuous
100
AcDbVertex
100
AcDb2dVertex
 10
-3.426924370489331
 20
-5.453509829583042
 30
0.0
 70
     8
  0
VERTEX
  5
1097
330
105A
100
AcDbEntity
  8
0
  6
Continuous
100
AcDbVertex
100
AcDb2dVertex
 10
-3.417534981484521
 20
-5.449676042018937
 30
0.0
 70
     8
  0
VERTEX
  5
1098
330
105A
100
AcDbEntity
  8
0
  6
Continuous
100
AcDbVertex
100
AcDb2dVertex
 10
-3.408804743982059
 20
-5.445372811208914
 30
0.0
 70
     8
  0
VERTEX
  5
1099
330
105A
100
AcDbEntity
  8
0
  6
Continuous
100
AcDbVertex
100
AcDb2dVertex
 10
-3.400691584466954
 20
-5.440593130584625
 30
0.0
 70
     8
  0
VERTEX
  5
109A
330
105A
100
AcDbEntity
  8
0
  6
Continuous
100
AcDbVertex
100
AcDb2dVertex
 10
-3.393153429424231
 20
-5.435329993577733
 30
0.0
 70
     8
  0
VERTEX
  5
109B
330
105A
100
AcDbEntity
  8
0
  6
Continuous
100
AcDbVertex
100
AcDb2dVertex
 10
-3.386148205338884
 20
-5.429576393619898
 30
0.0
 70
     8
  0
VERTEX
  5
109C
330
105A
100
AcDbEntity
  8
0
  6
Continuous
100
AcDbVertex
100
AcDb2dVertex
 10
-3.379633838695937
 20
-5.423325324142775
 30
0.0
 70
     8
  0
VERTEX
  5
109D
330
105A
100
AcDbEntity
  8
0
  6
Continuous
100
AcDbVertex
100
AcDb2dVertex
 10
-3.373570593247691
 20
-5.416536444442423
 30
0.0
 70
     8
  0
VERTEX
  5
109E
330
105A
100
AcDbEntity
  8
0
  6
Continuous
100
AcDbVertex
100
AcDb2dVertex
 10
-3.367928081815776
 20
-5.409036077272462
 30
0.0
 70
     8
  0
VERTEX
  5
109F
330
105A
100
AcDbEntity
  8
0
  6
Continuous
100
AcDbVertex
100
AcDb2dVertex
 10
-3.362678254489154
 20
-5.400617211250912
 30
0.0
 70
     8
  0
VERTEX
  5
10A0
330
105A
100
AcDbEntity
  8
0
  6
Continuous
100
AcDbVertex
100
AcDb2dVertex
 10
-3.357793061356744
 20
-5.391072834995798
 30
0.0
 70
     8
  0
VERTEX
  5
10A1
330
105A
100
AcDbEntity
  8
0
  6
Continuous
100
AcDbVertex
100
AcDb2dVertex
 10
-3.353244452507496
 20
-5.380195937125131
 30
0.0
 70
     8
  0
VERTEX
  5
10A2
330
105A
100
AcDbEntity
  8
0
  6
Continuous
100
AcDbVertex
100
AcDb2dVertex
 10
-3.349004378030357
 20
-5.367779506256924
 30
0.0
 70
     8
  0
VERTEX
  5
10A3
330
105A
100
AcDbEntity
  8
0
  6
Continuous
100
AcDbVertex
100
AcDb2dVertex
 10
-3.345044788014277
 20
-5.35361653100921
 30
0.0
 70
     8
  0
VERTEX
  5
10A4
330
105A
100
AcDbEntity
  8
0
  6
Continuous
100
AcDbVertex
100
AcDb2dVertex
 10
-3.341337632548174
 20
-5.3375
 30
0.0
 70
     8
  0
VERTEX
  5
10A5
330
105A
100
AcDbEntity
  8
0
  6
Continuous
100
AcDbVertex
100
AcDb2dVertex
 10
-4.404056767167716
 20
-5.519586872917885
 30
0.0
 70
    16
  0
VERTEX
  5
10A6
330
105A
100
AcDbEntity
  8
0
  6
Continuous
100
AcDbVertex
100
AcDb2dVertex
 10
-4.277200677781152
 20
-5.507628945609988
 30
0.0
 70
    16
  0
VERTEX
  5
10A7
330
105A
100
AcDbEntity
  8
0
  6
Continuous
100
AcDbVertex
100
AcDb2dVertex
 10
-4.169492613337681
 20
-5.548285979535785
 30
0.0
 70
    16
  0
VERTEX
  5
10A8
330
105A
100
AcDbEntity
  8
0
  6
Continuous
100
AcDbVertex
100
AcDb2dVertex
 10
-4.011520916449342
 20
-5.548285979535785
 30
0.0
 70
    16
  0
VERTEX
  5
10A9
330
105A
100
AcDbEntity
  8
0
  6
Continuous
100
AcDbVertex
100
AcDb2dVertex
 10
-3.810465940208231
 20
-5.517195297591173
 30
0.0
 70
    16
  0
VERTEX
  5
10AA
330
105A
100
AcDbEntity
  8
0
  6
Continuous
100
AcDbVertex
100
AcDb2dVertex
 10
-3.686003331616461
 20
-5.471755062337615
 30
0.0
 70
    16
  0
VERTEX
  5
10AB
330
105A
100
AcDbEntity
  8
0
  6
Continuous
100
AcDbVertex
100
AcDb2dVertex
 10
-3.554360191347967
 20
-5.471755062337615
 30
0.0
 70
    16
  0
VERTEX
  5
10AC
330
105A
100
AcDbEntity
  8
0
  6
Continuous
100
AcDbVertex
100
AcDb2dVertex
 10
-3.439471595227757
 20
-5.464580285683142
 30
0.0
 70
    16
  0
VERTEX
  5
10AD
330
105A
100
AcDbEntity
  8
0
  6
Continuous
100
AcDbVertex
100
AcDb2dVertex
 10
-3.374846810137071
 20
-5.428706402410769
 30
0.0
 70
    16
  0
VERTEX
  5
10AE
330
105A
100
AcDbEntity
  8
0
  6
Continuous
100
AcDbVertex
100
AcDb2dVertex
 10
-3.350911734312049
 20
-5.383266167157211
 30
0.0
 70
    16
  0
VERTEX
  5
10AF
330
105A
100
AcDbEntity
  8
0
  6
Continuous
100
AcDbVertex
100
AcDb2dVertex
 10
-3.341337632548174
 20
-5.337500000000003
 30
0.0
 70
    16
  0
SEQEND
  5
10B0
330
105A
100
AcDbEntity
  8
0
  6
Continuous
  0
LINE
  5
10B1
330
1045
100
AcDbEntity
  8
0
  6
Continuous
100
AcDbLine
 10
-6.647197565399373
 20
-4.950812293965826
 30
0.0
 11
-2.9375
 21
-3.874999999999998
 31
0.0
  0
ARC
  5
10B2
330
1045
100
AcDbEntity
  8
0
  6
Continuous
100
AcDbCircle
 10
0.0
 20
-13.30703125
 30
0.0
 40
7.719531249999999
100
AcDbArc
 50
97.91118413830785
 51
135.4990879078818
  0
LINE
  5
10B3
330
1045
100
AcDbEntity
  8
0
  6
Continuous
100
AcDbLine
 10
-6.545857631187701
 20
-5.087500000000011
 30
0.0
 11
-1.0625
 21
-5.087500000000011
 31
0.0
  0
LINE
  5
10B4
330
1045
100
AcDbEntity
  8
0
  6
Continuous
100
AcDbLine
 10
-6.839664220794304
 20
-7.896252632086932
 30
0.0
 11
-1.3125
 21
-7.896252632086936
 31
0.0
  0
LINE
  5
10B5
330
1045
100
AcDbEntity
  8
0
  6
Continuous
100
AcDbLine
 10
-6.576930315100042
 20
-5.115425723464666
 30
0.0
 11
-6.870770752953688
 21
-7.8620116193793
 31
0.0
  0
LINE
  5
10B6
330
1045
100
AcDbEntity
  8
0
  6
Continuous
100
AcDbLine
 10
-6.192989559980155
 20
-5.482722946737657
 30
0.0
 11
-6.847850837013801
 21
-7.895161243044247
 31
0.0
  0
LINE
  5
10B7
330
1045
100
AcDbEntity
  8
0
  6
Continuous
100
AcDbLine
 10
-7.0
 20
-7.899999999999996
 30
0.0
 11
-6.691939094332703
 21
-5.004227486727399
 31
0.0
  0
ARC
  5
10B8
330
1045
100
AcDbEntity
  8
0
100
AcDbCircle
 10
-6.5
 20
-8.319642857142858
 30
0.0
 40
0.5803571428571436
100
AcDbArc
 50
194.2500326978034
 51
345.7499673021959
  0
LINE
  5
10B9
330
1045
100
AcDbEntity
  8
0
  6
HIDDEN
100
AcDbLine
 10
-7.34375
 20
-8.087499999999996
 30
0.0
 11
-7.34375
 21
-8.462499999999996
 31
0.0
  0
LINE
  5
10BA
330
1045
100
AcDbEntity
  8
0
100
AcDbLine
 10
-7.0
 20
-8.087499999999996
 30
0.0
 11
-7.0
 21
-7.899999999999996
 31
0.0
  0
ARC
  5
10BB
330
1045
100
AcDbEntity
  8
0
  6
Continuous
100
AcDbCircle
 10
-6.839664220794304
 20
-7.865002632086936
 30
0.0
 40
0.03125
100
AcDbArc
 50
174.5076754428726
 51
270.0
  0
LINE
  5
10BC
330
1045
100
AcDbEntity
  8
0
  6
HIDDEN
100
AcDbLine
 10
-5.352856685074954
 20
-8.0875
 30
0.0
 11
-5.352856685074954
 21
-8.4625
 31
0.0
  0
LINE
  5
10BD
330
1045
100
AcDbEntity
  8
0
  6
HIDDEN
100
AcDbLine
 10
-5.165356685074947
 20
-8.0875
 30
0.0
 11
-5.165356685074947
 21
-8.4625
 31
0.0
  0
LINE
  5
10BE
330
1045
100
AcDbEntity
  8
0
  6
Continuous
100
AcDbLine
 10
-4.296995658176342
 20
-5.226186957272046
 30
0.0
 11
-6.166707034478754
 21
-5.459900879309854
 31
0.0
  0
ARC
  5
10BF
330
1045
100
AcDbEntity
  8
0
  6
Continuous
100
AcDbCircle
 10
-6.162830949022847
 20
-5.490909562957154
 30
0.0
 40
0.03125
100
AcDbArc
 50
97.12501634890143
 51
164.8129108021073
  0
ARC
  5
10C0
330
1045
100
AcDbEntity
  8
0
  6
Continuous
100
AcDbCircle
 10
-6.545857631187701
 20
-5.118750000000011
 30
0.0
 40
0.03125
100
AcDbArc
 50
90.0
 51
173.8935014741471
  0
ARC
  5
10C1
330
1045
100
AcDbEntity
  8
0
  6
Continuous
100
AcDbCircle
 10
-6.629789787259014
 20
-5.010839115139498
 30
0.0
 40
0.0625
100
AcDbArc
 50
106.1721590157829
 51
173.9275435927922
  0
LINE
  5
10C2
330
1045
100
AcDbEntity
  8
0
  6
Continuous
100
AcDbLine
 10
-4.442174919826854
 20
-5.244334364978362
 30
0.0
 11
-4.442174919826854
 21
-5.627146864978362
 31
0.0
  0
LINE
  5
10C3
330
1045
100
AcDbEntity
  8
0
  6
Continuous
100
AcDbLine
 10
-4.567174919826854
 20
-5.259959364978362
 30
0.0
 11
-4.567174919826854
 21
-5.627146864978362
 31
0.0
  0
ARC
  5
10C4
330
1045
100
AcDbEntity
  8
0
  6
Continuous
100
AcDbCircle
 10
-4.504674919826854
 20
-5.627146864978366
 30
0.0
 40
0.0625
100
AcDbArc
 50
0.0000000000016284
 51
179.9999999999967
  0
LINE
  5
10C5
330
1045
100
AcDbEntity
  8
0
  6
Continuous
100
AcDbLine
 10
-4.567174919826854
 20
-5.627146864978362
 30
0.0
 11
-4.442174919826854
 21
-5.627146864978362
 31
0.0
  0
LINE
  5
10C6
330
1045
100
AcDbEntity
  8
0
  6
Continuous
100
AcDbLine
 10
-4.754674919826854
 20
-4.136564594399834
 30
0.0
 11
-4.254674919826854
 21
-4.136564594399837
 31
0.0
  0
LINE
  5
10C7
330
1045
100
AcDbEntity
  8
0
  6
Continuous
100
AcDbLine
 10
-4.754674919826854
 20
-3.949064594399834
 30
0.0
 11
-4.254674919826854
 21
-3.949064594399834
 31
0.0
  0
LINE
  5
10C8
330
1045
100
AcDbEntity
  8
0
  6
Continuous
100
AcDbLine
 10
-4.754674919826854
 20
-4.136564594399834
 30
0.0
 11
-4.754674919826854
 21
-3.949064594399834
 31
0.0
  0
LINE
  5
10C9
330
1045
100
AcDbEntity
  8
0
  6
Continuous
100
AcDbLine
 10
-4.723424919826854
 20
-3.949064594399834
 30
0.0
 11
-4.723424919826854
 21
-3.886564594399834
 31
0.0
  0
LINE
  5
10CA
330
1045
100
AcDbEntity
  8
0
  6
Continuous
100
AcDbLine
 10
-4.473424919826854
 20
-4.199064594399837
 30
0.0
 11
-4.473424919826854
 21
-4.320418226749792
 31
0.0
  0
LINE
  5
10CB
330
1045
100
AcDbEntity
  8
0
  6
Continuous
100
AcDbLine
 10
-4.535924919826854
 20
-4.338543226749793
 30
0.0
 11
-4.535924919826854
 21
-4.199064594399837
 31
0.0
  0
LINE
  5
10CC
330
1045
100
AcDbEntity
  8
0
  6
Continuous
100
AcDbLine
 10
-4.723424919826854
 20
-4.39291822674979
 30
0.0
 11
-4.723424919826854
 21
-4.136564594399837
 31
0.0
  0
CIRCLE
  5
10CD
330
1045
100
AcDbEntity
  8
0
  6
Continuous
100
AcDbCircle
 10
-4.504674919826854
 20
-4.199064594399837
 30
0.0
 40
0.03125
  0
LINE
  5
10CE
330
1045
100
AcDbEntity
  8
0
  6
Continuous
100
AcDbLine
 10
-4.1875
 20
-5.102152222682837
 30
0.0
 11
-4.1875
 21
-5.087500000000003
 31
0.0
  0
ARC
  5
10CF
330
1045
100
AcDbEntity
  8
0
  6
Continuous
100
AcDbCircle
 10
-4.3125
 20
-5.102152222682841
 30
0.0
 40
0.125
100
AcDbArc
 50
277.1250163489014
 51
0.0
  0
LINE
  5
10D0
330
1045
100
AcDbEntity
  8
0
  6
Continuous
100
AcDbLine
 10
-3.9375
 20
-5.087500000000003
 30
0.0
 11
-3.9375
 21
-4.962500000000011
 31
0.0
  0
LINE
  5
10D1
330
1045
100
AcDbEntity
  8
0
  6
Continuous
100
AcDbLine
 10
-4.285924919826854
 20
-3.949064594399834
 30
0.0
 11
-4.285924919826854
 21
-3.886564594399837
 31
0.0
  0
LINE
  5
10D2
330
1045
100
AcDbEntity
  8
0
  6
Continuous
100
AcDbLine
 10
-4.254674919826854
 20
-4.136564594399837
 30
0.0
 11
-4.254674919826854
 21
-3.949064594399834
 31
0.0
  0
LINE
  5
10D3
330
1045
100
AcDbEntity
  8
0
  6
Continuous
100
AcDbLine
 10
-4.285924919826854
 20
-4.266043226749792
 30
0.0
 11
-4.285924919826854
 21
-4.136564594399837
 31
0.0
  0
LINE
  5
10D4
330
1045
100
AcDbEntity
  8
0
  6
Continuous
100
AcDbLine
 10
-4.723424919826854
 20
-3.886564594399834
 30
0.0
 11
-4.285924919826854
 21
-3.886564594399837
 31
0.0
  0
LINE
  5
10D5
330
1045
100
AcDbEntity
  8
0
  6
Continuous
100
AcDbLine
 10
-1.0625
 20
-7.646252632086936
 30
0.0
 11
-1.0625
 21
-3.874999999999998
 31
0.0
  0
ARC
  5
10D6
330
1045
100
AcDbEntity
  8
0
  6
Continuous
100
AcDbCircle
 10
-1.3125
 20
-7.646252632086936
 30
0.0
 40
0.25
100
AcDbArc
 50
270.0
 51
0.0
  0
LINE
  5
10D7
330
1045
100
AcDbEntity
  8
0
  6
Continuous
100
AcDbLine
 10
-1.0625
 20
-5.337499999999996
 30
0.0
 11
-3.8125
 21
-5.337499999999996
 31
0.0
  0
LINE
  5
10D8
330
1045
100
AcDbEntity
  8
0
  6
Continuous
100
AcDbLine
 10
-1.0625
 20
-4.962500000000011
 30
0.0
 11
-3.6875
 21
-4.962500000000011
 31
0.0
  0
LINE
  5
10D9
330
1045
100
AcDbEntity
  8
0
  6
Continuous
100
AcDbLine
 10
-1.0625
 20
-4.775000000000011
 30
0.0
 11
-3.1875
 21
-4.775000000000011
 31
0.0
  0
LINE
  5
10DA
330
1045
100
AcDbEntity
  8
0
  6
Continuous
100
AcDbLine
 10
-1.0625
 20
-4.681250000000011
 30
0.0
 11
-3.0
 21
-4.681250000000011
 31
0.0
  0
LINE
  5
10DB
330
1045
100
AcDbEntity
  8
0
  6
Continuous
100
AcDbLine
 10
-1.0625
 20
-4.431250000000011
 30
0.0
 11
-3.0
 21
-4.431250000000011
 31
0.0
  0
LINE
  5
10DC
330
1045
100
AcDbEntity
  8
0
  6
Continuous
100
AcDbLine
 10
-3.8125
 20
-5.087500000000003
 30
0.0
 11
-3.8125
 21
-5.337499999999996
 31
0.0
  0
LINE
  5
10DD
330
1045
100
AcDbEntity
  8
0
  6
Continuous
100
AcDbLine
 10
-3.6875
 20
-4.962500000000011
 30
0.0
 11
-3.6875
 21
-4.775000000000011
 31
0.0
  0
LINE
  5
10DE
330
1045
100
AcDbEntity
  8
0
  6
Continuous
100
AcDbLine
 10
-3.6875
 20
-4.962500000000011
 30
0.0
 11
-3.6875
 21
-4.775000000000011
 31
0.0
  0
LINE
  5
10DF
330
1045
100
AcDbEntity
  8
0
  6
Continuous
100
AcDbLine
 10
-3.1875
 20
-4.775000000000011
 30
0.0
 11
-3.1875
 21
-4.681250000000011
 31
0.0
  0
LINE
  5
10E0
330
1045
100
AcDbEntity
  8
0
  6
Continuous
100
AcDbLine
 10
-3.0
 20
-4.681250000000011
 30
0.0
 11
-3.0
 21
-4.431250000000011
 31
0.0
  0
LINE
  5
10E1
330
1045
100
AcDbEntity
  8
0
  6
Continuous
100
AcDbLine
 10
-3.0
 20
-4.431250000000011
 30
0.0
 11
-2.9375
 21
-4.431250000000011
 31
0.0
  0
LINE
  5
10E2
330
1045
100
AcDbEntity
  8
0
  6
Continuous
100
AcDbLine
 10
-3.1875
 20
-4.681250000000011
 30
0.0
 11
-3.0
 21
-4.681250000000011
 31
0.0
  0
LINE
  5
10E3
330
1045
100
AcDbEntity
  8
0
100
AcDbLine
 10
-3.4375
 20
-3.874999999999998
 30
0.0
 11
-3.4375
 21
-3.749999999999998
 31
0.0
  0
LINE
  5
10E4
330
1045
100
AcDbEntity
  8
0
  6
Continuous
100
AcDbLine
 10
-2.9375
 20
-4.431250000000011
 30
0.0
 11
-2.9375
 21
-3.874999999999998
 31
0.0
  0
LINE
  5
10E5
330
1045
100
AcDbEntity
  8
0
  6
Continuous
100
AcDbLine
 10
-3.6875
 20
-4.775000000000011
 30
0.0
 11
-3.1875
 21
-4.775000000000011
 31
0.0
  0
LINE
  5
10E6
330
1045
100
AcDbEntity
  8
0
  6
Continuous
100
AcDbLine
 10
-0.9375
 20
-5.011564594399841
 30
0.0
 11
-0.9375
 21
-3.874999999999998
 31
0.0
  0
LINE
  5
10E7
330
1045
100
AcDbEntity
  8
0
100
AcDbLine
 10
-4.0
 20
-3.624999999999998
 30
0.0
 11
-4.0
 21
-1.124999999999998
 31
0.0
  0
LINE
  5
10E8
330
1045
100
AcDbEntity
  8
0
100
AcDbLine
 10
-4.0
 20
-1.124999999999998
 30
0.0
 11
-3.875
 21
-0.9999999999999982
 31
0.0
  0
LINE
  5
10E9
330
1045
100
AcDbEntity
  8
0
100
AcDbLine
 10
-2.125
 20
0.0000000000000018
 30
0.0
 11
-3.4375
 21
-0.9999999999999982
 31
0.0
  0
LINE
  5
10EA
330
1045
100
AcDbEntity
  8
0
100
AcDbLine
 10
4.0
 20
-3.624999999999998
 30
0.0
 11
3.875
 21
-3.749999999999998
 31
0.0
  0
LINE
  5
10EB
330
1045
100
AcDbEntity
  8
0
  6
Continuous
100
AcDbLine
 10
3.8125
 20
-5.337500000000003
 30
0.0
 11
1.0625
 21
-5.337499999999996
 31
0.0
  0
LINE
  5
10EC
330
1045
100
AcDbEntity
  8
0
  6
Continuous
100
AcDbLine
 10
3.9375
 20
-4.962500000000011
 30
0.0
 11
1.0625
 21
-4.962500000000011
 31
0.0
  0
LINE
  5
10ED
330
1045
100
AcDbEntity
  8
0
  6
Continuous
100
AcDbLine
 10
3.6875
 20
-4.775000000000011
 30
0.0
 11
1.0625
 21
-4.775000000000011
 31
0.0
  0
ARC
  5
10EE
330
1045
100
AcDbEntity
  8
0
  6
Continuous
100
AcDbCircle
 10
0.0
 20
-13.30703125
 30
0.0
 40
7.719531249999999
100
AcDbArc
 50
44.50091209211805
 51
82.08881586169216
  0
LINE
  5
10EF
330
1045
100
AcDbEntity
  8
0
  6
Continuous
100
AcDbLine
 10
6.545857631187701
 20
-5.087500000000011
 30
0.0
 11
1.0625
 21
-5.087500000000011
 31
0.0
  0
LINE
  5
10F0
330
1045
100
AcDbEntity
  8
0
  6
Continuous
100
AcDbLine
 10
6.839664220794304
 20
-7.896252632086932
 30
0.0
 11
1.3125
 21
-7.896252632086936
 31
0.0
  0
LINE
  5
10F1
330
1045
100
AcDbEntity
  8
0
  6
Continuous
100
AcDbLine
 10
6.64719756539938
 20
-4.95081229396583
 30
0.0
 11
2.9375
 21
-3.874999999999998
 31
0.0
  0
POLYLINE
  5
10F2
330
1045
100
AcDbEntity
  8
0
  6
Continuous
100
AcDb2dPolyline
 66
     1
 10
0.0
 20
0.0
 30
0.0
 70
     4
 40
0.03125
 41
0.03125
 75
     6
  0
VERTEX
  5
10F3
330
10F2
100
AcDbEntity
  8
0
  6
Continuous
100
AcDbVertex
100
AcDb2dVertex
 10
4.504674919826854
 20
-5.564646864978369
 30
0.0
 70
    16
  0
VERTEX
  5
10F4
330
10F2
100
AcDbEntity
  8
0
  6
Continuous
100
AcDbVertex
100
AcDb2dVertex
 10
4.504674919826854
 20
-5.564646864978369
 30
0.0
 70
     8
  0
VERTEX
  5
10F5
330
10F2
100
AcDbEntity
  8
0
  6
Continuous
100
AcDbVertex
100
AcDb2dVertex
 10
4.468640642191957
 20
-5.5495240345719
 30
0.0
 70
     8
  0
VERTEX
  5
10F6
330
10F2
100
AcDbEntity
  8
0
  6
Continuous
100
AcDbVertex
100
AcDb2dVertex
 10
4.435818396987144
 20
-5.537721511036442
 30
0.0
 70
     8
  0
VERTEX
  5
10F7
330
10F2
100
AcDbEntity
  8
0
  6
Continuous
100
AcDbVertex
100
AcDb2dVertex
 10
4.405933644020691
 20
-5.528895754829916
 30
0.0
 70
     8
  0
VERTEX
  5
10F8
330
10F2
100
AcDbEntity
  8
0
  6
Continuous
100
AcDbVertex
100
AcDb2dVertex
 10
4.378711843100887
 20
-5.522703226410227
 30
0.0
 70
     8
  0
VERTEX
  5
10F9
330
10F2
100
AcDbEntity
  8
0
  6
Continuous
100
AcDbVertex
100
AcDb2dVertex
 10
4.353878454036035
 20
-5.518800386235275
 30
0.0
 70
     8
  0
VERTEX
  5
10FA
330
10F2
100
AcDbEntity
  8
0
  6
Continuous
100
AcDbVertex
100
AcDb2dVertex
 10
4.331158936634381
 20
-5.516843694762966
 30
0.0
 70
     8
  0
VERTEX
  5
10FB
330
10F2
100
AcDbEntity
  8
0
  6
Continuous
100
AcDbVertex
100
AcDb2dVertex
 10
4.310278750704242
 20
-5.516489612451222
 30
0.0
 70
     8
  0
VERTEX
  5
10FC
330
10F2
100
AcDbEntity
  8
0
  6
Continuous
100
AcDbVertex
100
AcDb2dVertex
 10
4.290963356053879
 20
-5.517394599757933
 30
0.0
 70
     8
  0
VERTEX
  5
10FD
330
10F2
100
AcDbEntity
  8
0
  6
Continuous
100
AcDbVertex
100
AcDb2dVertex
 10
4.27294072709968
 20
-5.519240065476543
 30
0.0
 70
     8
  0
VERTEX
  5
10FE
330
10F2
100
AcDbEntity
  8
0
  6
Continuous
100
AcDbVertex
100
AcDb2dVertex
 10
4.255948896690426
 20
-5.521807211742588
 30
0.0
 70
     8
  0
VERTEX
  5
10FF
330
10F2
100
AcDbEntity
  8
0
  6
Continuous
100
AcDbVertex
100
AcDb2dVertex
 10
4.239728412282985
 20
-5.524902189027143
 30
0.0
 70
     8
  0
VERTEX
  5
1100
330
10F2
100
AcDbEntity
  8
0
  6
Continuous
100
AcDbVertex
100
AcDb2dVertex
 10
4.224019821334238
 20
-5.528331147801265
 30
0.0
 70
     8
  0
VERTEX
  5
1101
330
10F2
100
AcDbEntity
  8
0
  6
Continuous
100
AcDbVertex
100
AcDb2dVertex
 10
4.208563671301035
 20
-5.531900238536023
 30
0.0
 70
     8
  0
VERTEX
  5
1102
330
10F2
100
AcDbEntity
  8
0
  6
Continuous
100
AcDbVertex
100
AcDb2dVertex
 10
4.193100509640274
 20
-5.535415611702495
 30
0.0
 70
     8
  0
VERTEX
  5
1103
330
10F2
100
AcDbEntity
  8
0
  6
Continuous
100
AcDbVertex
100
AcDb2dVertex
 10
4.177370883808819
 20
-5.538683417771741
 30
0.0
 70
     8
  0
VERTEX
  5
1104
330
10F2
100
AcDbEntity
  8
0
  6
Continuous
100
AcDbVertex
100
AcDb2dVertex
 10
4.161115341263524
 20
-5.54150980721482
 30
0.0
 70
     8
  0
VERTEX
  5
1105
330
10F2
100
AcDbEntity
  8
0
  6
Continuous
100
AcDbVertex
100
AcDb2dVertex
 10
4.144120008906341
 20
-5.543736352804506
 30
0.0
 70
     8
  0
VERTEX
  5
1106
330
10F2
100
AcDbEntity
  8
0
  6
Continuous
100
AcDbVertex
100
AcDb2dVertex
 10
4.126353331419323
 20
-5.545346316520314
 30
0.0
 70
     8
  0
VERTEX
  5
1107
330
10F2
100
AcDbEntity
  8
0
  6
Continuous
100
AcDbVertex
100
AcDb2dVertex
 10
4.10782933292964
 20
-5.546358382643459
 30
0.0
 70
     8
  0
VERTEX
  5
1108
330
10F2
100
AcDbEntity
  8
0
  6
Continuous
100
AcDbVertex
100
AcDb2dVertex
 10
4.088562037564386
 20
-5.546791235455158
 30
0.0
 70
     8
  0
VERTEX
  5
1109
330
10F2
100
AcDbEntity
  8
0
  6
Continuous
100
AcDbVertex
100
AcDb2dVertex
 10
4.068565469450732
 20
-5.546663559236611
 30
0.0
 70
     8
  0
VERTEX
  5
110A
330
10F2
100
AcDbEntity
  8
0
  6
Continuous
100
AcDbVertex
100
AcDb2dVertex
 10
4.047853652715772
 20
-5.545994038269041
 30
0.0
 70
     8
  0
VERTEX
  5
110B
330
10F2
100
AcDbEntity
  8
0
  6
Continuous
100
AcDbVertex
100
AcDb2dVertex
 10
4.026440611486663
 20
-5.544801356833664
 30
0.0
 70
     8
  0
VERTEX
  5
110C
330
10F2
100
AcDbEntity
  8
0
  6
Continuous
100
AcDbVertex
100
AcDb2dVertex
 10
4.004340369890542
 20
-5.543104199211688
 30
0.0
 70
     8
  0
VERTEX
  5
110D
330
10F2
100
AcDbEntity
  8
0
  6
Continuous
100
AcDbVertex
100
AcDb2dVertex
 10
3.981603571616346
 20
-5.5409235852236
 30
0.0
 70
     8
  0
VERTEX
  5
110E
330
10F2
100
AcDbEntity
  8
0
  6
Continuous
100
AcDbVertex
100
AcDb2dVertex
 10
3.95842733860033
 20
-5.538289876846993
 30
0.0
 70
     8
  0
VERTEX
  5
110F
330
10F2
100
AcDbEntity
  8
0
  6
Continuous
100
AcDbVertex
100
AcDb2dVertex
 10
3.935045412340514
 20
-5.53523577159874
 30
0.0
 70
     8
  0
VERTEX
  5
1110
330
10F2
100
AcDbEntity
  8
0
  6
Continuous
100
AcDbVertex
100
AcDb2dVertex
 10
3.911691534334963
 20
-5.531793966995698
 30
0.0
 70
     8
  0
VERTEX
  5
1111
330
10F2
100
AcDbEntity
  8
0
  6
Continuous
100
AcDbVertex
100
AcDb2dVertex
 10
3.888599446081727
 20
-5.527997160554738
 30
0.0
 70
     8
  0
VERTEX
  5
1112
330
10F2
100
AcDbEntity
  8
0
  6
Continuous
100
AcDbVertex
100
AcDb2dVertex
 10
3.86600288907887
 20
-5.523878049792733
 30
0.0
 70
     8
  0
VERTEX
  5
1113
330
10F2
100
AcDbEntity
  8
0
  6
Continuous
100
AcDbVertex
100
AcDb2dVertex
 10
3.84413560482443
 20
-5.519469332226533
 30
0.0
 70
     8
  0
VERTEX
  5
1114
330
10F2
100
AcDbEntity
  8
0
  6
Continuous
100
AcDbVertex
100
AcDb2dVertex
 10
3.823231334816455
 20
-5.514803705373017
 30
0.0
 70
     8
  0
VERTEX
  5
1115
330
10F2
100
AcDbEntity
  8
0
  6
Continuous
100
AcDbVertex
100
AcDb2dVertex
 10
3.803457593812652
 20
-5.509927879984706
 30
0.0
 70
     8
  0
VERTEX
  5
1116
330
10F2
100
AcDbEntity
  8
0
  6
Continuous
100
AcDbVertex
100
AcDb2dVertex
 10
3.784716989609393
 20
-5.504944619756725
 30
0.0
 70
     8
  0
VERTEX
  5
1117
330
10F2
100
AcDbEntity
  8
0
  6
Continuous
100
AcDbVertex
100
AcDb2dVertex
 10
3.766845903262648
 20
-5.499970701619863
 30
0.0
 70
     8
  0
VERTEX
  5
1118
330
10F2
100
AcDbEntity
  8
0
  6
Continuous
100
AcDbVertex
100
AcDb2dVertex
 10
3.749680715828446
 20
-5.495122902504908
 30
0.0
 70
     8
  0
VERTEX
  5
1119
330
10F2
100
AcDbEntity
  8
0
  6
Continuous
100
AcDbVertex
100
AcDb2dVertex
 10
3.733057808362758
 20
-5.490517999342648
 30
0.0
 70
     8
  0
VERTEX
  5
111A
330
10F2
100
AcDbEntity
  8
0
  6
Continuous
100
AcDbVertex
100
AcDb2dVertex
 10
3.71681356192164
 20
-5.486272769063864
 30
0.0
 70
     8
  0
VERTEX
  5
111B
330
10F2
100
AcDbEntity
  8
0
  6
Continuous
100
AcDbVertex
100
AcDb2dVertex
 10
3.700784357561047
 20
-5.482503988599345
 30
0.0
 70
     8
  0
VERTEX
  5
111C
330
10F2
100
AcDbEntity
  8
0
  6
Continuous
100
AcDbVertex
100
AcDb2dVertex
 10
3.68480657633701
 20
-5.47932843487988
 30
0.0
 70
     8
  0
VERTEX
  5
111D
330
10F2
100
AcDbEntity
  8
0
  6
Continuous
100
AcDbVertex
100
AcDb2dVertex
 10
3.668751660495345
 20
-5.476826294731926
 30
0.0
 70
     8
  0
VERTEX
  5
111E
330
10F2
100
AcDbEntity
  8
0
  6
Continuous
100
AcDbVertex
100
AcDb2dVertex
 10
3.652631297041196
 20
-5.474931394564682
 30
0.0
 70
     8
  0
VERTEX
  5
111F
330
10F2
100
AcDbEntity
  8
0
  6
Continuous
100
AcDbVertex
100
AcDb2dVertex
 10
3.636492234169551
 20
-5.473540970683002
 30
0.0
 70
     8
  0
VERTEX
  5
1120
330
10F2
100
AcDbEntity
  8
0
  6
Continuous
100
AcDbVertex
100
AcDb2dVertex
 10
3.620381220075373
 20
-5.472552259391767
 30
0.0
 70
     8
  0
VERTEX
  5
1121
330
10F2
100
AcDbEntity
  8
0
  6
Continuous
100
AcDbVertex
100
AcDb2dVertex
 10
3.604345002953621
 20
-5.47186249699583
 30
0.0
 70
     8
  0
VERTEX
  5
1122
330
10F2
100
AcDbEntity
  8
0
  6
Continuous
100
AcDbVertex
100
AcDb2dVertex
 10
3.588430330999273
 20
-5.471368919800076
 30
0.0
 70
     8
  0
VERTEX
  5
1123
330
10F2
100
AcDbEntity
  8
0
  6
Continuous
100
AcDbVertex
100
AcDb2dVertex
 10
3.572683952407302
 20
-5.470968764109356
 30
0.0
 70
     8
  0
VERTEX
  5
1124
330
10F2
100
AcDbEntity
  8
0
  6
Continuous
100
AcDbVertex
100
AcDb2dVertex
 10
3.557152615372672
 20
-5.470559266228539
 30
0.0
 70
     8
  0
VERTEX
  5
1125
330
10F2
100
AcDbEntity
  8
0
  6
Continuous
100
AcDbVertex
100
AcDb2dVertex
 10
3.541886184689019
 20
-5.470047783127197
 30
0.0
 70
     8
  0
VERTEX
  5
1126
330
10F2
100
AcDbEntity
  8
0
  6
Continuous
100
AcDbVertex
100
AcDb2dVertex
 10
3.526946991544562
 20
-5.469382154433665
 30
0.0
 70
     8
  0
VERTEX
  5
1127
330
10F2
100
AcDbEntity
  8
0
  6
Continuous
100
AcDbVertex
100
AcDb2dVertex
 10
3.512400483726167
 20
-5.468520340440994
 30
0.0
 70
     8
  0
VERTEX
  5
1128
330
10F2
100
AcDbEntity
  8
0
  6
Continuous
100
AcDbVertex
100
AcDb2dVertex
 10
3.49831210902073
 20
-5.467420301442208
 30
0.0
 70
     8
  0
VERTEX
  5
1129
330
10F2
100
AcDbEntity
  8
0
  6
Continuous
100
AcDbVertex
100
AcDb2dVertex
 10
3.484747315215116
 20
-5.46603999773036
 30
0.0
 70
     8
  0
VERTEX
  5
112A
330
10F2
100
AcDbEntity
  8
0
  6
Continuous
100
AcDbVertex
100
AcDb2dVertex
 10
3.471771550096207
 20
-5.464337389598489
 30
0.0
 70
     8
  0
VERTEX
  5
112B
330
10F2
100
AcDbEntity
  8
0
  6
Continuous
100
AcDbVertex
100
AcDb2dVertex
 10
3.459450261450882
 20
-5.462270437339631
 30
0.0
 70
     8
  0
VERTEX
  5
112C
330
10F2
100
AcDbEntity
  8
0
  6
Continuous
100
AcDbVertex
100
AcDb2dVertex
 10
3.447848897066009
 20
-5.459797101246826
 30
0.0
 70
     8
  0
VERTEX
  5
112D
330
10F2
100
AcDbEntity
  8
0
  6
Continuous
100
AcDbVertex
100
AcDb2dVertex
 10
3.437014984511492
 20
-5.456881180469556
 30
0.0
 70
     8
  0
VERTEX
  5
112E
330
10F2
100
AcDbEntity
  8
0
  6
Continuous
100
AcDbVertex
100
AcDb2dVertex
 10
3.426924370489331
 20
-5.453509829583046
 30
0.0
 70
     8
  0
VERTEX
  5
112F
330
10F2
100
AcDbEntity
  8
0
  6
Continuous
100
AcDbVertex
100
AcDb2dVertex
 10
3.417534981484507
 20
-5.449676042018941
 30
0.0
 70
     8
  0
VERTEX
  5
1130
330
10F2
100
AcDbEntity
  8
0
  6
Continuous
100
AcDbVertex
100
AcDb2dVertex
 10
3.408804743982045
 20
-5.445372811208917
 30
0.0
 70
     8
  0
VERTEX
  5
1131
330
10F2
100
AcDbEntity
  8
0
  6
Continuous
100
AcDbVertex
100
AcDb2dVertex
 10
3.400691584466954
 20
-5.440593130584629
 30
0.0
 70
     8
  0
VERTEX
  5
1132
330
10F2
100
AcDbEntity
  8
0
  6
Continuous
100
AcDbVertex
100
AcDb2dVertex
 10
3.393153429424231
 20
-5.435329993577736
 30
0.0
 70
     8
  0
VERTEX
  5
1133
330
10F2
100
AcDbEntity
  8
0
  6
Continuous
100
AcDbVertex
100
AcDb2dVertex
 10
3.386148205338884
 20
-5.429576393619901
 30
0.0
 70
     8
  0
VERTEX
  5
1134
330
10F2
100
AcDbEntity
  8
0
  6
Continuous
100
AcDbVertex
100
AcDb2dVertex
 10
3.379633838695923
 20
-5.423325324142778
 30
0.0
 70
     8
  0
VERTEX
  5
1135
330
10F2
100
AcDbEntity
  8
0
  6
Continuous
100
AcDbVertex
100
AcDb2dVertex
 10
3.373570593247677
 20
-5.416536444442426
 30
0.0
 70
     8
  0
VERTEX
  5
1136
330
10F2
100
AcDbEntity
  8
0
  6
Continuous
100
AcDbVertex
100
AcDb2dVertex
 10
3.367928081815776
 20
-5.409036077272466
 30
0.0
 70
     8
  0
VERTEX
  5
1137
330
10F2
100
AcDbEntity
  8
0
  6
Continuous
100
AcDbVertex
100
AcDb2dVertex
 10
3.362678254489139
 20
-5.400617211250915
 30
0.0
 70
     8
  0
VERTEX
  5
1138
330
10F2
100
AcDbEntity
  8
0
  6
Continuous
100
AcDbVertex
100
AcDb2dVertex
 10
3.357793061356744
 20
-5.391072834995801
 30
0.0
 70
     8
  0
VERTEX
  5
1139
330
10F2
100
AcDbEntity
  8
0
  6
Continuous
100
AcDbVertex
100
AcDb2dVertex
 10
3.353244452507496
 20
-5.380195937125135
 30
0.0
 70
     8
  0
VERTEX
  5
113A
330
10F2
100
AcDbEntity
  8
0
  6
Continuous
100
AcDbVertex
100
AcDb2dVertex
 10
3.349004378030357
 20
-5.367779506256928
 30
0.0
 70
     8
  0
VERTEX
  5
113B
330
10F2
100
AcDbEntity
  8
0
  6
Continuous
100
AcDbVertex
100
AcDb2dVertex
 10
3.345044788014263
 20
-5.353616531009214
 30
0.0
 70
     8
  0
VERTEX
  5
113C
330
10F2
100
AcDbEntity
  8
0
  6
Continuous
100
AcDbVertex
100
AcDb2dVertex
 10
3.341337632548174
 20
-5.337500000000003
 30
0.0
 70
     8
  0
VERTEX
  5
113D
330
10F2
100
AcDbEntity
  8
0
  6
Continuous
100
AcDbVertex
100
AcDb2dVertex
 10
4.404056767167716
 20
-5.519586872917889
 30
0.0
 70
    16
  0
VERTEX
  5
113E
330
10F2
100
AcDbEntity
  8
0
  6
Continuous
100
AcDbVertex
100
AcDb2dVertex
 10
4.277200677781152
 20
-5.507628945609992
 30
0.0
 70
    16
  0
VERTEX
  5
113F
330
10F2
100
AcDbEntity
  8
0
  6
Continuous
100
AcDbVertex
100
AcDb2dVertex
 10
4.169492613337681
 20
-5.548285979535789
 30
0.0
 70
    16
  0
VERTEX
  5
1140
330
10F2
100
AcDbEntity
  8
0
  6
Continuous
100
AcDbVertex
100
AcDb2dVertex
 10
4.011520916449342
 20
-5.548285979535789
 30
0.0
 70
    16
  0
VERTEX
  5
1141
330
10F2
100
AcDbEntity
  8
0
  6
Continuous
100
AcDbVertex
100
AcDb2dVertex
 10
3.810465940208231
 20
-5.517195297591177
 30
0.0
 70
    16
  0
VERTEX
  5
1142
330
10F2
100
AcDbEntity
  8
0
  6
Continuous
100
AcDbVertex
100
AcDb2dVertex
 10
3.686003331616461
 20
-5.471755062337619
 30
0.0
 70
    16
  0
VERTEX
  5
1143
330
10F2
100
AcDbEntity
  8
0
  6
Continuous
100
AcDbVertex
100
AcDb2dVertex
 10
3.554360191347967
 20
-5.471755062337619
 30
0.0
 70
    16
  0
VERTEX
  5
1144
330
10F2
100
AcDbEntity
  8
0
  6
Continuous
100
AcDbVertex
100
AcDb2dVertex
 10
3.439471595227757
 20
-5.464580285683146
 30
0.0
 70
    16
  0
VERTEX
  5
1145
330
10F2
100
AcDbEntity
  8
0
  6
Continuous
100
AcDbVertex
100
AcDb2dVertex
 10
3.374846810137071
 20
-5.428706402410773
 30
0.0
 70
    16
  0
VERTEX
  5
1146
330
10F2
100
AcDbEntity
  8
0
  6
Continuous
100
AcDbVertex
100
AcDb2dVertex
 10
3.350911734312049
 20
-5.383266167157215
 30
0.0
 70
    16
  0
VERTEX
  5
1147
330
10F2
100
AcDbEntity
  8
0
  6
Continuous
100
AcDbVertex
100
AcDb2dVertex
 10
3.341337632548174
 20
-5.337500000000007
 30
0.0
 70
    16
  0
SEQEND
  5
1148
330
10F2
100
AcDbEntity
  8
0
  6
Continuous
  0
LINE
  5
1149
330
1045
100
AcDbEntity
  8
0
  6
Continuous
100
AcDbLine
 10
1.0625
 20
-7.646252632086936
 30
0.0
 11
1.0625
 21
-3.874999999999998
 31
0.0
  0
LINE
  5
114A
330
1045
100
AcDbEntity
  8
0
  6
HIDDEN
100
AcDbLine
 10
-0.09375
 20
-8.087499999999996
 30
0.0
 11
-0.09375
 21
-8.462499999999996
 31
0.0
  0
LINE
  5
114B
330
1045
100
AcDbEntity
  8
0
  6
HIDDEN
100
AcDbLine
 10
0.09375
 20
-8.087499999999996
 30
0.0
 11
0.09375
 21
-8.462499999999996
 31
0.0
  0
ARC
  5
114C
330
1045
100
AcDbEntity
  8
0
  6
Continuous
100
AcDbCircle
 10
1.3125
 20
-7.646252632086936
 30
0.0
 40
0.25
100
AcDbArc
 50
180.0
 51
270.0
  0
LINE
  5
114D
330
1045
100
AcDbEntity
  8
0
100
AcDbLine
 10
3.4375
 20
-3.874999999999998
 30
0.0
 11
0.0
 21
-3.874999999999998
 31
0.0
  0
LINE
  5
114E
330
1045
100
AcDbEntity
  8
0
  6
Continuous
100
AcDbLine
 10
3.1875
 20
-4.681250000000011
 30
0.0
 11
1.0625
 21
-4.681250000000011
 31
0.0
  0
LINE
  5
114F
330
1045
100
AcDbEntity
  8
0
  6
Continuous
100
AcDbLine
 10
3.0
 20
-4.431250000000011
 30
0.0
 11
1.0625
 21
-4.431250000000011
 31
0.0
  0
LINE
  5
1150
330
1045
100
AcDbEntity
  8
0
  6
Continuous
100
AcDbLine
 10
0.9375
 20
-5.011564594399834
 30
0.0
 11
0.9375
 21
-3.874999999999998
 31
0.0
  0
LINE
  5
1151
330
1045
100
AcDbEntity
  8
0
  6
Continuous
100
AcDbLine
 10
3.0
 20
-4.681250000000011
 30
0.0
 11
3.0
 21
-4.431250000000011
 31
0.0
  0
LINE
  5
1152
330
1045
100
AcDbEntity
  8
0
  6
Continuous
100
AcDbLine
 10
3.1875
 20
-4.775000000000011
 30
0.0
 11
3.1875
 21
-4.681250000000011
 31
0.0
  0
LINE
  5
1153
330
1045
100
AcDbEntity
  8
0
100
AcDbLine
 10
3.4375
 20
-3.874999999999998
 30
0.0
 11
3.4375
 21
-3.749999999999998
 31
0.0
  0
LINE
  5
1154
330
1045
100
AcDbEntity
  8
0
  6
Continuous
100
AcDbLine
 10
2.9375
 20
-4.431250000000011
 30
0.0
 11
2.9375
 21
-3.874999999999998
 31
0.0
  0
LINE
  5
1155
330
1045
100
AcDbEntity
  8
0
  6
Continuous
100
AcDbLine
 10
6.192989559980162
 20
-5.482722946737661
 30
0.0
 11
6.847850837013794
 21
-7.895161243044247
 31
0.0
  0
LINE
  5
1156
330
1045
100
AcDbEntity
  8
0
  6
Continuous
100
AcDbLine
 10
6.576930315100042
 20
-5.115425723464669
 30
0.0
 11
6.870770752953688
 21
-7.8620116193793
 31
0.0
  0
LINE
  5
1157
330
1045
100
AcDbEntity
  8
0
  6
Continuous
100
AcDbLine
 10
7.0
 20
-7.899999999999996
 30
0.0
 11
6.691939094332695
 21
-5.004227486727403
 31
0.0
  0
LINE
  5
1158
330
1045
100
AcDbEntity
  8
0
  6
HIDDEN
100
AcDbLine
 10
5.165356685074954
 20
-8.0875
 30
0.0
 11
5.165356685074954
 21
-8.4625
 31
0.0
  0
LINE
  5
1159
330
1045
100
AcDbEntity
  8
0
  6
HIDDEN
100
AcDbLine
 10
5.352856685074954
 20
-8.0875
 30
0.0
 11
5.352856685074954
 21
-8.4625
 31
0.0
  0
ARC
  5
115A
330
1045
100
AcDbEntity
  8
0
100
AcDbCircle
 10
6.5
 20
-8.319642857142861
 30
0.0
 40
0.5803571428571436
100
AcDbArc
 50
194.250032697804
 51
345.7499673021966
  0
ARC
  5
115B
330
1045
100
AcDbEntity
  8
0
  6
Continuous
100
AcDbCircle
 10
6.839664220794304
 20
-7.865002632086939
 30
0.0
 40
0.03125
100
AcDbArc
 50
270.0
 51
5.492324557127345
  0
LINE
  5
115C
330
1045
100
AcDbEntity
  8
0
100
AcDbLine
 10
7.0
 20
-8.0875
 30
0.0
 11
7.0
 21
-7.899999999999996
 31
0.0
  0
LINE
  5
115D
330
1045
100
AcDbEntity
  8
0
  6
Continuous
100
AcDbLine
 10
4.296995658176342
 20
-5.226186957272046
 30
0.0
 11
6.166707034478747
 21
-5.459900879309854
 31
0.0
  0
LINE
  5
115E
330
1045
100
AcDbEntity
  8
0
  6
Continuous
100
AcDbLine
 10
4.567174919826854
 20
-5.259959364978362
 30
0.0
 11
4.567174919826854
 21
-5.627146864978362
 31
0.0
  0
LINE
  5
115F
330
1045
100
AcDbEntity
  8
0
  6
Continuous
100
AcDbLine
 10
4.442174919826854
 20
-5.244334364978362
 30
0.0
 11
4.442174919826854
 21
-5.627146864978362
 31
0.0
  0
LINE
  5
1160
330
1045
100
AcDbEntity
  8
0
  6
Continuous
100
AcDbLine
 10
4.567174919826854
 20
-5.627146864978362
 30
0.0
 11
4.442174919826854
 21
-5.627146864978362
 31
0.0
  0
ARC
  5
1161
330
1045
100
AcDbEntity
  8
0
  6
Continuous
100
AcDbCircle
 10
4.504674919826854
 20
-5.627146864978369
 30
0.0
 40
0.0625
100
AcDbArc
 50
0.0000000000032569
 51
179.9999999999983
  0
LINE
  5
1162
330
1045
100
AcDbEntity
  8
0
  6
Continuous
100
AcDbLine
 10
4.723424919826854
 20
-3.886564594399834
 30
0.0
 11
4.285924919826854
 21
-3.886564594399837
 31
0.0
  0
LINE
  5
1163
330
1045
100
AcDbEntity
  8
0
  6
Continuous
100
AcDbLine
 10
4.754674919826854
 20
-3.949064594399834
 30
0.0
 11
4.254674919826854
 21
-3.949064594399834
 31
0.0
  0
LINE
  5
1164
330
1045
100
AcDbEntity
  8
0
  6
Continuous
100
AcDbLine
 10
4.754674919826854
 20
-4.136564594399834
 30
0.0
 11
4.254674919826854
 21
-4.136564594399837
 31
0.0
  0
LINE
  5
1165
330
1045
100
AcDbEntity
  8
0
  6
Continuous
100
AcDbLine
 10
3.8125
 20
-5.087500000000011
 30
0.0
 11
3.8125
 21
-5.337500000000003
 31
0.0
  0
LINE
  5
1166
330
1045
100
AcDbEntity
  8
0
  6
Continuous
100
AcDbLine
 10
3.6875
 20
-4.962500000000011
 30
0.0
 11
3.6875
 21
-4.775000000000011
 31
0.0
  0
LINE
  5
1167
330
1045
100
AcDbEntity
  8
0
  6
Continuous
100
AcDbLine
 10
3.6875
 20
-4.962500000000011
 30
0.0
 11
3.6875
 21
-4.775000000000011
 31
0.0
  0
LINE
  5
1168
330
1045
100
AcDbEntity
  8
0
  6
Continuous
100
AcDbLine
 10
3.9375
 20
-5.087500000000003
 30
0.0
 11
3.9375
 21
-4.962500000000011
 31
0.0
  0
LINE
  5
1169
330
1045
100
AcDbEntity
  8
0
  6
Continuous
100
AcDbLine
 10
4.1875
 20
-5.102152222682837
 30
0.0
 11
4.1875
 21
-5.087500000000003
 31
0.0
  0
LINE
  5
116A
330
1045
100
AcDbEntity
  8
0
  6
Continuous
100
AcDbLine
 10
3.9375
 20
-4.962500000000011
 30
0.0
 11
3.6875
 21
-4.962500000000011
 31
0.0
  0
LINE
  5
116B
330
1045
100
AcDbEntity
  8
0
  6
Continuous
100
AcDbLine
 10
4.254674919826854
 20
-4.136564594399837
 30
0.0
 11
4.254674919826854
 21
-3.949064594399834
 31
0.0
  0
LINE
  5
116C
330
1045
100
AcDbEntity
  8
0
  6
Continuous
100
AcDbLine
 10
4.285924919826854
 20
-3.949064594399834
 30
0.0
 11
4.285924919826854
 21
-3.886564594399837
 31
0.0
  0
LINE
  5
116D
330
1045
100
AcDbEntity
  8
0
  6
Continuous
100
AcDbLine
 10
4.285924919826854
 20
-4.266043226749792
 30
0.0
 11
4.285924919826854
 21
-4.136564594399837
 31
0.0
  0
ARC
  5
116E
330
1045
100
AcDbEntity
  8
0
  6
Continuous
100
AcDbCircle
 10
4.3125
 20
-5.102152222682844
 30
0.0
 40
0.125
100
AcDbArc
 50
180.0
 51
262.8749836510986
  0
LINE
  5
116F
330
1045
100
AcDbEntity
  8
0
  6
Continuous
100
AcDbLine
 10
4.754674919826854
 20
-4.136564594399834
 30
0.0
 11
4.754674919826854
 21
-3.949064594399834
 31
0.0
  0
LINE
  5
1170
330
1045
100
AcDbEntity
  8
0
  6
Continuous
100
AcDbLine
 10
4.723424919826854
 20
-3.949064594399834
 30
0.0
 11
4.723424919826854
 21
-3.886564594399834
 31
0.0
  0
CIRCLE
  5
1171
330
1045
100
AcDbEntity
  8
0
  6
Continuous
100
AcDbCircle
 10
4.504674919826854
 20
-4.199064594399841
 30
0.0
 40
0.03125
  0
LINE
  5
1172
330
1045
100
AcDbEntity
  8
0
  6
Continuous
100
AcDbLine
 10
4.723424919826854
 20
-4.39291822674979
 30
0.0
 11
4.723424919826854
 21
-4.136564594399837
 31
0.0
  0
LINE
  5
1173
330
1045
100
AcDbEntity
  8
0
  6
Continuous
100
AcDbLine
 10
4.535924919826854
 20
-4.338543226749793
 30
0.0
 11
4.535924919826854
 21
-4.199064594399837
 31
0.0
  0
LINE
  5
1174
330
1045
100
AcDbEntity
  8
0
  6
Continuous
100
AcDbLine
 10
4.473424919826854
 20
-4.199064594399837
 30
0.0
 11
4.473424919826854
 21
-4.320418226749792
 31
0.0
  0
ARC
  5
1175
330
1045
100
AcDbEntity
  8
0
  6
Continuous
100
AcDbCircle
 10
6.162830949022833
 20
-5.490909562957158
 30
0.0
 40
0.03125
100
AcDbArc
 50
15.18708919789284
 51
82.87498365109859
  0
ARC
  5
1176
330
1045
100
AcDbEntity
  8
0
  6
Continuous
100
AcDbCircle
 10
6.629789787258999
 20
-5.010839115139502
 30
0.0
 40
0.0625
100
AcDbArc
 50
6.072456407207734
 51
73.82784098421705
  0
ARC
  5
1177
330
1045
100
AcDbEntity
  8
0
  6
Continuous
100
AcDbCircle
 10
6.545857631187686
 20
-5.118750000000014
 30
0.0
 40
0.03125
100
AcDbArc
 50
6.106498525852773
 51
90.0
  0
LINE
  5
1178
330
1045
100
AcDbEntity
  8
0
100
AcDbLine
 10
2.125
 20
-0.0000000000000018
 30
0.0
 11
3.4375
 21
-0.9999999999999982
 31
0.0
  0
LINE
  5
1179
330
1045
100
AcDbEntity
  8
0
100
AcDbLine
 10
4.0
 20
-3.624999999999998
 30
0.0
 11
4.0
 21
-1.125000000000001
 31
0.0
  0
LINE
  5
117A
330
1045
100
AcDbEntity
  8
0
100
AcDbLine
 10
3.875
 20
-1.000000000000001
 30
0.0
 11
4.0
 21
-1.125000000000001
 31
0.0
  0
LINE
  5
117B
330
1045
100
AcDbEntity
  8
0
  6
HIDDEN
100
AcDbLine
 10
7.34375
 20
-8.0875
 30
0.0
 11
7.34375
 21
-8.4625
 31
0.0
  0
LINE
  5
117C
330
1045
100
AcDbEntity
  8
0
  6
HIDDEN
100
AcDbLine
 10
7.53125
 20
-8.0875
 30
0.0
 11
7.53125
 21
-8.4625
 31
0.0
  0
LINE
  5
117D
330
1045
100
AcDbEntity
  8
0
100
AcDbLine
 10
7.6875
 20
-8.4625
 30
0.0
 11
7.6875
 21
-8.0875
 31
0.0
  0
ENDBLK
  5
1047
330
1045
100
AcDbEntity
  8
0
100
AcDbBlockEnd
  0
BLOCK
  5
1181
330
1180
100
AcDbEntity
  8
0
100
AcDbBlockBegin
  2
driver_face_view
 70
     0
 10
0.0
 20
0.0
 30
0.0
  3
driver_face_view
  1

  0
ARC
  5
1183
330
1180
100
AcDbEntity
  8
0
100
AcDbCircle
 10
0.0
 20
0.0
 30
0.0
 40
7.5
100
AcDbArc
 50
1.172009828249898
 51
43.82799017175004
  0
CIRCLE
  5
1184
330
1180
100
AcDbEntity
  8
0
100
AcDbCircle
 10
0.0
 20
0.0
 30
0.0
 40
7.6875
  0
CIRCLE
  5
1185
330
1180
100
AcDbEntity
  8
0
100
AcDbCircle
 10
0.0
 20
0.0
 30
0.0
 40
7.5625
  0
CIRCLE
  5
1186
330
1180
100
AcDbEntity
  8
0
100
AcDbCircle
 10
0.0
 20
0.0
 30
0.0
 40
7.0625
  0
ARC
  5
1187
330
1180
100
AcDbEntity
  8
0
100
AcDbCircle
 10
0.0
 20
0.0
 30
0.0
 40
7.5
100
AcDbArc
 50
316.1720098282499
 51
358.82799017175
  0
ARC
  5
1188
330
1180
100
AcDbEntity
  8
0
100
AcDbCircle
 10
0.0
 20
0.0
 30
0.0
 40
7.5
100
AcDbArc
 50
136.1720098282499
 51
178.8279901717499
  0
CIRCLE
  5
1189
330
1180
100
AcDbEntity
  8
0
100
AcDbCircle
 10
0.0
 20
0.0
 30
0.0
 40
5.6875
  0
CIRCLE
  5
118A
330
1180
100
AcDbEntity
  8
0
100
AcDbCircle
 10
0.0
 20
0.0
 30
0.0
 40
5.9375
  0
CIRCLE
  5
118B
330
1180
100
AcDbEntity
  8
0
100
AcDbCircle
 10
0.0
 20
0.0
 30
0.0
 40
5.71875
  0
ARC
  5
118C
330
1180
100
AcDbEntity
  8
0
100
AcDbCircle
 10
0.0
 20
0.0
 30
0.0
 40
7.5
100
AcDbArc
 50
226.1720098282499
 51
268.8279901717499
  0
ARC
  5
118D
330
1180
100
AcDbEntity
  8
0
100
AcDbCircle
 10
0.0
 20
0.0
 30
0.0
 40
7.5
100
AcDbArc
 50
181.1720098282499
 51
223.82799017175
  0
ARC
  5
118E
330
1180
100
AcDbEntity
  8
0
100
AcDbCircle
 10
-5.28120377198703
 20
-5.281203771987023
 30
0.0
 40
0.15625
100
AcDbArc
 50
304.0496575834605
 51
145.9503424165392
  0
CIRCLE
  5
118F
330
1180
100
AcDbEntity
  8
0
100
AcDbCircle
 10
-5.259106685074954
 20
-5.259106685074943
 30
0.0
 40
0.09375
  0
CIRCLE
  5
1190
330
1180
100
AcDbEntity
  8
0
100
AcDbCircle
 10
-7.4375
 20
0.0000000000000044
 30
0.0
 40
0.09375
  0
ARC
  5
1191
330
1180
100
AcDbEntity
  8
0
100
AcDbCircle
 10
-7.46875
 20
0.0000000000000044
 30
0.0
 40
0.15625
100
AcDbArc
 50
259.0496575834605
 51
100.9503424165394
  0
ARC
  5
1192
330
1180
100
AcDbEntity
  8
0
100
AcDbCircle
 10
0.0
 20
0.0
 30
0.0
 40
7.5
100
AcDbArc
 50
271.17200982825
 51
313.8279901717499
  0
ARC
  5
1193
330
1180
100
AcDbEntity
  8
0
100
AcDbCircle
 10
0.0
 20
-7.46875
 30
0.0
 40
0.15625
100
AcDbArc
 50
349.0496575834605
 51
190.9503424165392
  0
CIRCLE
  5
1194
330
1180
100
AcDbEntity
  8
0
100
AcDbCircle
 10
0.0
 20
-7.4375
 30
0.0
 40
0.09375
  0
CIRCLE
  5
1195
330
1180
100
AcDbEntity
  8
0
100
AcDbCircle
 10
5.259106685074947
 20
-5.25910668507495
 30
0.0
 40
0.09375
  0
ARC
  5
1196
330
1180
100
AcDbEntity
  8
0
100
AcDbCircle
 10
5.281203771987023
 20
-5.28120377198703
 30
0.0
 40
0.15625
100
AcDbArc
 50
34.04965758346075
 51
235.9503424165394
  0
ARC
  5
1197
330
1180
100
AcDbEntity
  8
0
100
AcDbCircle
 10
0.0
 20
0.0
 30
0.0
 40
7.5
100
AcDbArc
 50
91.17200982825
 51
133.8279901717499
  0
ARC
  5
1198
330
1180
100
AcDbEntity
  8
0
100
AcDbCircle
 10
-5.281203771987023
 20
5.281203771987026
 30
0.0
 40
0.15625
100
AcDbArc
 50
214.0496575834606
 51
55.95034241653941
  0
CIRCLE
  5
1199
330
1180
100
AcDbEntity
  8
0
100
AcDbCircle
 10
-5.259106685074947
 20
5.259106685074947
 30
0.0
 40
0.09375
  0
ARC
  5
119A
330
1180
100
AcDbEntity
  8
0
100
AcDbCircle
 10
0.0
 20
0.0
 30
0.0
 40
7.5
100
AcDbArc
 50
46.17200982824992
 51
88.82799017175001
  0
CIRCLE
  5
119B
330
1180
100
AcDbEntity
  8
0
100
AcDbCircle
 10
0.0
 20
7.4375
 30
0.0
 40
0.09375
  0
ARC
  5
119C
330
1180
100
AcDbEntity
  8
0
100
AcDbCircle
 10
0.0
 20
7.46875
 30
0.0
 40
0.15625
100
AcDbArc
 50
169.0496575834607
 51
10.95034241653918
  0
CIRCLE
  5
119D
330
1180
100
AcDbEntity
  8
0
100
AcDbCircle
 10
5.259106685074954
 20
5.259106685074938
 30
0.0
 40
0.09375
  0
ARC
  5
119E
330
1180
100
AcDbEntity
  8
0
100
AcDbCircle
 10
5.281203771987037
 20
5.281203771987017
 30
0.0
 40
0.15625
100
AcDbArc
 50
124.0496575834605
 51
325.9503424165391
  0
ARC
  5
119F
330
1180
100
AcDbEntity
  8
0
100
AcDbCircle
 10
7.46875
 20
-0.000000000000008
 30
0.0
 40
0.15625
100
AcDbArc
 50
79.04965758346053
 51
280.9503424165394
  0
CIRCLE
  5
11A0
330
1180
100
AcDbEntity
  8
0
100
AcDbCircle
 10
7.4375
 20
-0.000000000000008
 30
0.0
 40
0.09375
  0
ENDBLK
  5
1182
330
1180
100
AcDbEntity
  8
0
100
AcDbBlockEnd
  0
BLOCK
  5
138F
330
1384
100
AcDbEntity
  8
0
100
AcDbBlockBegin
  2
*D2
 70
     1
 10
0.0
 20
0.0
 30
0.0
  3
*D2
  1

  0
LINE
  5
1385
330
1384
100
AcDbEntity
  8
dims
 62
     0
370
    -2
100
AcDbLine
 10
-2.214386414112539
 20
-21.91231752491135
 30
0.0
 11
-2.214386414112539
 21
-28.71774194407993
 31
0.0
  0
LINE
  5
1386
330
1384
100
AcDbEntity
  8
dims
 62
     0
370
    -2
100
AcDbLine
 10
26.28561358588746
 20
-21.91231752491135
 30
0.0
 11
26.28561358588746
 21
-28.71774194407993
 31
0.0
  0
LINE
  5
1387
330
1384
100
AcDbEntity
  8
dims
 62
     0
370
    -2
100
AcDbLine
 10
0.7781135858874602
 20
-26.71774194407993
 30
0.0
 11
9.526149300173175
 21
-26.71774194407993
 31
0.0
  0
LINE
  5
1388
330
1384
100
AcDbEntity
  8
dims
 62
     0
370
    -2
100
AcDbLine
 10
23.29311358588746
 20
-26.71774194407993
 30
0.0
 11
14.54507787160174
 21
-26.71774194407993
 31
0.0
  0
SOLID
  5
1389
330
1384
100
AcDbEntity
  8
dims
 62
     0
100
AcDbTrace
 10
0.7781135858874602
 20
-26.21899194407993
 30
0.0
 11
0.7781135858874602
 21
-27.21649194407993
 31
0.0
 12
-2.214386414112539
 22
-26.71774194407993
 32
0.0
 13
-2.214386414112539
 23
-26.71774194407993
 33
0.0
  0
SOLID
  5
138A
330
1384
100
AcDbEntity
  8
dims
 62
     0
100
AcDbTrace
 10
23.29311358588746
 20
-26.21899194407993
 30
0.0
 11
23.29311358588746
 21
-27.21649194407993
 31
0.0
 12
26.28561358588746
 22
-26.71774194407993
 32
0.0
 13
26.28561358588746
 23
-26.71774194407993
 33
0.0
  0
MTEXT
  5
138B
330
1384
100
AcDbEntity
  8
dims
 62
     0
100
AcDbMText
 10
12.03561358588746
 20
-26.71774194407993
 30
0.0
 40
1.992499999999999
 41
0.0
 71
     5
 72
     1
  1
\A1;28{\H1.000000x;\S1/2;}
  7
ROMANS
 73
     1
 44
1.0
  0
POINT
  5
138C
330
1384
100
AcDbEntity
  8
Defpoints
 62
     0
100
AcDbPoint
 10
-2.214386414112539
 20
-20.91231752491135
 30
0.0
  0
POINT
  5
138D
330
1384
100
AcDbEntity
  8
Defpoints
 62
     0
100
AcDbPoint
 10
26.28561358588746
 20
-20.91231752491135
 30
0.0
  0
POINT
  5
138E
330
1384
100
AcDbEntity
  8
Defpoints
 62
     0
100
AcDbPoint
 10
26.28561358588746
 20
-26.71774194407993
 30
0.0
  0
ENDBLK
  5
1390
330
1384
100
AcDbEntity
  8
0
100
AcDbBlockEnd
  0
BLOCK
  5
139D
330
1392
100
AcDbEntity
  8
0
100
AcDbBlockBegin
  2
*D3
 70
     1
 10
0.0
 20
0.0
 30
0.0
  3
*D3
  1

  0
LINE
  5
1393
330
1392
100
AcDbEntity
  8
dims
 62
     0
370
    -2
100
AcDbLine
 10
-1.214386414112539
 20
-10.26976721437322
 30
0.0
 11
-1.214386414112539
 21
-15.08280622484704
 31
0.0
  0
LINE
  5
1394
330
1392
100
AcDbEntity
  8
dims
 62
     0
370
    -2
100
AcDbLine
 10
25.28561358588746
 20
-10.26976721437322
 30
0.0
 11
25.28561358588746
 21
-15.08280622484704
 31
0.0
  0
LINE
  5
1395
330
1392
100
AcDbEntity
  8
dims
 62
     0
370
    -2
100
AcDbLine
 10
1.77811358588746
 20
-13.08280622484704
 30
0.0
 11
9.526149300173175
 21
-13.08280622484704
 31
0.0
  0
LINE
  5
1396
330
1392
100
AcDbEntity
  8
dims
 62
     0
370
    -2
100
AcDbLine
 10
22.29311358588746
 20
-13.08280622484704
 30
0.0
 11
14.54507787160174
 21
-13.08280622484704
 31
0.0
  0
SOLID
  5
1397
330
1392
100
AcDbEntity
  8
dims
 62
     0
100
AcDbTrace
 10
1.77811358588746
 20
-12.58405622484704
 30
0.0
 11
1.77811358588746
 21
-13.58155622484704
 31
0.0
 12
-1.214386414112539
 22
-13.08280622484704
 32
0.0
 13
-1.214386414112539
 23
-13.08280622484704
 33
0.0
  0
SOLID
  5
1398
330
1392
100
AcDbEntity
  8
dims
 62
     0
100
AcDbTrace
 10
22.29311358588746
 20
-12.58405622484704
 30
0.0
 11
22.29311358588746
 21
-13.58155622484704
 31
0.0
 12
25.28561358588746
 22
-13.08280622484704
 32
0.0
 13
25.28561358588746
 23
-13.08280622484704
 33
0.0
  0
MTEXT
  5
1399
330
1392
100
AcDbEntity
  8
dims
 62
     0
100
AcDbMText
 10
12.03561358588746
 20
-13.08280622484704
 30
0.0
 40
1.992499999999999
 41
0.0
 71
     5
 72
     1
  1
\A1;26{\H1.000000x;\S1/2;}
  7
ROMANS
 73
     1
 44
1.0
  0
POINT
  5
139A
330
1392
100
AcDbEntity
  8
Defpoints
 62
     0
100
AcDbPoint
 10
-1.214386414112539
 20
-9.269767214373224
 30
0.0
  0
POINT
  5
139B
330
1392
100
AcDbEntity
  8
Defpoints
 62
     0
100
AcDbPoint
 10
25.28561358588746
 20
-9.269767214373224
 30
0.0
  0
POINT
  5
139C
330
1392
100
AcDbEntity
  8
Defpoints
 62
     0
100
AcDbPoint
 10
25.28561358588746
 20
-13.08280622484704
 30
0.0
  0
ENDBLK
  5
139E
330
1392
100
AcDbEntity
  8
0
100
AcDbBlockEnd
  0
BLOCK
  5
13AB
330
13A0
100
AcDbEntity
  8
0
100
AcDbBlockBegin
  2
*D4
 70
     1
 10
0.0
 20
0.0
 30
0.0
  3
*D4
  1

  0
LINE
  5
1459
330
13A0
100
AcDbEntity
  8
dims
 62
     0
370
    -2
100
AcDbLine
 10
0.0356135858874608
 20
5.543415222041794
 30
0.0
 11
0.0356135858874605
 21
0.0812394824600063
 31
0.0
  0
LINE
  5
145A
330
13A0
100
AcDbEntity
  8
dims
 62
     0
370
    -2
100
AcDbLine
 10
24.03561358588746
 20
5.543415222041794
 30
0.0
 11
24.03561358588746
 21
0.0812394824600063
 31
0.0
  0
LINE
  5
145B
330
13A0
100
AcDbEntity
  8
dims
 62
     0
370
    -2
100
AcDbLine
 10
3.02811358588746
 20
2.081239482460006
 30
0.0
 11
10.28519691922079
 21
2.081239482460006
 31
0.0
  0
LINE
  5
145C
330
13A0
100
AcDbEntity
  8
dims
 62
     0
370
    -2
100
AcDbLine
 10
21.04311358588746
 20
2.081239482460006
 30
0.0
 11
13.78603025255412
 21
2.081239482460006
 31
0.0
  0
SOLID
  5
145D
330
13A0
100
AcDbEntity
  8
dims
 62
     0
100
AcDbTrace
 10
3.02811358588746
 20
2.579989482460006
 30
0.0
 11
3.02811358588746
 21
1.582489482460006
 31
0.0
 12
0.0356135858874606
 22
2.081239482460006
 32
0.0
 13
0.0356135858874606
 23
2.081239482460006
 33
0.0
  0
SOLID
  5
145E
330
13A0
100
AcDbEntity
  8
dims
 62
     0
100
AcDbTrace
 10
21.04311358588746
 20
2.579989482460006
 30
0.0
 11
21.04311358588746
 21
1.582489482460006
 31
0.0
 12
24.03561358588746
 22
2.081239482460006
 32
0.0
 13
24.03561358588746
 23
2.081239482460006
 33
0.0
  0
MTEXT
  5
145F
330
13A0
100
AcDbEntity
  8
dims
 62
     0
100
AcDbMText
 10
12.03561358588746
 20
2.081239482460006
 30
0.0
 40
1.992499999999999
 41
0.0
 71
     5
 72
     1
  1
\A1;24
  7
ROMANS
 73
     1
 44
1.0
  0
POINT
  5
1460
330
13A0
100
AcDbEntity
  8
Defpoints
 62
     0
100
AcDbPoint
 10
0.0356135858874609
 20
6.543415222041794
 30
0.0
  0
POINT
  5
1461
330
13A0
100
AcDbEntity
  8
Defpoints
 62
     0
100
AcDbPoint
 10
24.03561358588746
 20
6.543415222041794
 30
0.0
  0
POINT
  5
1462
330
13A0
100
AcDbEntity
  8
Defpoints
 62
     0
100
AcDbPoint
 10
24.03561358588746
 20
2.081239482460006
 30
0.0
  0
ENDBLK
  5
13AC
330
13A0
100
AcDbEntity
  8
0
100
AcDbBlockEnd
  0
BLOCK
  5
13B9
330
13AE
100
AcDbEntity
  8
0
100
AcDbBlockBegin
  2
*D5
 70
     1
 10
0.0
 20
0.0
 30
0.0
  3
*D5
  1

  0
LINE
  5
1445
330
13AE
100
AcDbEntity
  8
dims
 62
     0
370
    -2
100
AcDbLine
 10
0.0356135858874608
 20
20.30951931435007
 30
0.0
 11
0.0356135858874605
 21
14.45118964391213
 31
0.0
  0
LINE
  5
1446
330
13AE
100
AcDbEntity
  8
dims
 62
     0
370
    -2
100
AcDbLine
 10
24.03561358588746
 20
20.30951931435006
 30
0.0
 11
24.03561358588746
 21
14.45118964391213
 31
0.0
  0
LINE
  5
1447
330
13AE
100
AcDbEntity
  8
dims
 62
     0
370
    -2
100
AcDbLine
 10
3.02811358588746
 20
16.45118964391213
 30
0.0
 11
10.28519691922079
 21
16.45118964391213
 31
0.0
  0
LINE
  5
1448
330
13AE
100
AcDbEntity
  8
dims
 62
     0
370
    -2
100
AcDbLine
 10
21.04311358588746
 20
16.45118964391213
 30
0.0
 11
13.78603025255412
 21
16.45118964391213
 31
0.0
  0
SOLID
  5
1449
330
13AE
100
AcDbEntity
  8
dims
 62
     0
100
AcDbTrace
 10
3.02811358588746
 20
16.94993964391213
 30
0.0
 11
3.02811358588746
 21
15.95243964391213
 31
0.0
 12
0.0356135858874606
 22
16.45118964391213
 32
0.0
 13
0.0356135858874606
 23
16.45118964391213
 33
0.0
  0
SOLID
  5
144A
330
13AE
100
AcDbEntity
  8
dims
 62
     0
100
AcDbTrace
 10
21.04311358588746
 20
16.94993964391213
 30
0.0
 11
21.04311358588746
 21
15.95243964391213
 31
0.0
 12
24.03561358588746
 22
16.45118964391213
 32
0.0
 13
24.03561358588746
 23
16.45118964391213
 33
0.0
  0
MTEXT
  5
144B
330
13AE
100
AcDbEntity
  8
dims
 62
     0
100
AcDbMText
 10
12.03561358588746
 20
16.45118964391213
 30
0.0
 40
1.992499999999999
 41
0.0
 71
     5
 72
     1
  1
\A1;24
  7
ROMANS
 73
     1
 44
1.0
  0
POINT
  5
144C
330
13AE
100
AcDbEntity
  8
Defpoints
 62
     0
100
AcDbPoint
 10
0.0356135858874609
 20
21.30951931435007
 30
0.0
  0
POINT
  5
144D
330
13AE
100
AcDbEntity
  8
Defpoints
 62
     0
100
AcDbPoint
 10
24.03561358588746
 20
21.30951931435006
 30
0.0
  0
POINT
  5
144E
330
13AE
100
AcDbEntity
  8
Defpoints
 62
     0
100
AcDbPoint
 10
24.03561358588746
 20
16.45118964391213
 30
0.0
  0
ENDBLK
  5
13BA
330
13AE
100
AcDbEntity
  8
0
100
AcDbBlockEnd
  0
BLOCK
  5
13C7
330
13BC
100
AcDbEntity
  8
0
100
AcDbBlockBegin
  2
*D6
 70
     1
 10
0.0
 20
0.0
 30
0.0
  3
*D6
  1

  0
LINE
  5
1431
330
13BC
100
AcDbEntity
  8
dims
 62
     0
370
    -2
100
AcDbLine
 10
-1.214386414112539
 20
36.26551221836308
 30
0.0
 11
-1.214386414112539
 21
30.37343764592935
 31
0.0
  0
LINE
  5
1432
330
13BC
100
AcDbEntity
  8
dims
 62
     0
370
    -2
100
AcDbLine
 10
25.28561358588746
 20
36.26551221836308
 30
0.0
 11
25.28561358588746
 21
30.37343764592935
 31
0.0
  0
LINE
  5
1433
330
13BC
100
AcDbEntity
  8
dims
 62
     0
370
    -2
100
AcDbLine
 10
1.77811358588746
 20
32.37343764592935
 30
0.0
 11
9.526149300173175
 21
32.37343764592935
 31
0.0
  0
LINE
  5
1434
330
13BC
100
AcDbEntity
  8
dims
 62
     0
370
    -2
100
AcDbLine
 10
22.29311358588746
 20
32.37343764592935
 30
0.0
 11
14.54507787160174
 21
32.37343764592935
 31
0.0
  0
SOLID
  5
1435
330
13BC
100
AcDbEntity
  8
dims
 62
     0
100
AcDbTrace
 10
1.77811358588746
 20
32.87218764592935
 30
0.0
 11
1.77811358588746
 21
31.87468764592935
 31
0.0
 12
-1.214386414112539
 22
32.37343764592935
 32
0.0
 13
-1.214386414112539
 23
32.37343764592935
 33
0.0
  0
SOLID
  5
1436
330
13BC
100
AcDbEntity
  8
dims
 62
     0
100
AcDbTrace
 10
22.29311358588746
 20
32.87218764592935
 30
0.0
 11
22.29311358588746
 21
31.87468764592935
 31
0.0
 12
25.28561358588746
 22
32.37343764592935
 32
0.0
 13
25.28561358588746
 23
32.37343764592935
 33
0.0
  0
MTEXT
  5
1437
330
13BC
100
AcDbEntity
  8
dims
 62
     0
100
AcDbMText
 10
12.03561358588746
 20
32.37343764592935
 30
0.0
 40
1.992499999999999
 41
0.0
 71
     5
 72
     1
  1
\A1;26{\H1.000000x;\S1/2;}
  7
ROMANS
 73
     1
 44
1.0
  0
POINT
  5
1438
330
13BC
100
AcDbEntity
  8
Defpoints
 62
     0
100
AcDbPoint
 10
-1.214386414112539
 20
37.26551221836308
 30
0.0
  0
POINT
  5
1439
330
13BC
100
AcDbEntity
  8
Defpoints
 62
     0
100
AcDbPoint
 10
25.28561358588746
 20
37.26551221836308
 30
0.0
  0
POINT
  5
143A
330
13BC
100
AcDbEntity
  8
Defpoints
 62
     0
100
AcDbPoint
 10
25.28561358588746
 20
32.37343764592935
 30
0.0
  0
ENDBLK
  5
13C8
330
13BC
100
AcDbEntity
  8
0
100
AcDbBlockEnd
  0
BLOCK
  5
13D5
330
13CA
100
AcDbEntity
  8
0
100
AcDbBlockBegin
  2
*D7
 70
     1
 10
0.0
 20
0.0
 30
0.0
  3
*D7
  1

  0
LINE
  5
141D
330
13CA
100
AcDbEntity
  8
dims
 62
     0
370
    -2
100
AcDbLine
 10
2.535613585887467
 20
56.24174829516801
 30
0.0
 11
2.535613585887467
 21
48.35016903804026
 31
0.0
  0
LINE
  5
141E
330
13CA
100
AcDbEntity
  8
dims
 62
     0
370
    -2
100
AcDbLine
 10
21.53561358588746
 20
56.24174829516801
 30
0.0
 11
21.53561358588746
 21
48.35016903804026
 31
0.0
  0
LINE
  5
141F
330
13CA
100
AcDbEntity
  8
dims
 62
     0
370
    -2
100
AcDbLine
 10
5.528113585887467
 20
50.35016903804026
 30
0.0
 11
10.52239930017317
 21
50.35016903804026
 31
0.0
  0
LINE
  5
1420
330
13CA
100
AcDbEntity
  8
dims
 62
     0
370
    -2
100
AcDbLine
 10
18.54311358588746
 20
50.35016903804026
 30
0.0
 11
13.54882787160175
 21
50.35016903804026
 31
0.0
  0
SOLID
  5
1421
330
13CA
100
AcDbEntity
  8
dims
 62
     0
100
AcDbTrace
 10
5.528113585887467
 20
50.84891903804027
 30
0.0
 11
5.528113585887467
 21
49.85141903804026
 31
0.0
 12
2.535613585887467
 22
50.35016903804026
 32
0.0
 13
2.535613585887467
 23
50.35016903804026
 33
0.0
  0
SOLID
  5
1422
330
13CA
100
AcDbEntity
  8
dims
 62
     0
100
AcDbTrace
 10
18.54311358588746
 20
50.84891903804027
 30
0.0
 11
18.54311358588746
 21
49.85141903804026
 31
0.0
 12
21.53561358588746
 22
50.35016903804026
 32
0.0
 13
21.53561358588746
 23
50.35016903804026
 33
0.0
  0
MTEXT
  5
1423
330
13CA
100
AcDbEntity
  8
dims
 62
     0
100
AcDbMText
 10
12.03561358588746
 20
50.35016903804026
 30
0.0
 40
1.992499999999999
 41
0.0
 71
     5
 72
     1
  1
\A1;19
  7
ROMANS
 73
     1
 44
1.0
  0
POINT
  5
1424
330
13CA
100
AcDbEntity
  8
Defpoints
 62
     0
100
AcDbPoint
 10
2.535613585887467
 20
57.24174829516801
 30
0.0
  0
POINT
  5
1425
330
13CA
100
AcDbEntity
  8
Defpoints
 62
     0
100
AcDbPoint
 10
21.53561358588746
 20
57.24174829516801
 30
0.0
  0
POINT
  5
1426
330
13CA
100
AcDbEntity
  8
Defpoints
 62
     0
100
AcDbPoint
 10
21.53561358588746
 20
50.35016903804026
 30
0.0
  0
ENDBLK
  5
13D6
330
13CA
100
AcDbEntity
  8
0
100
AcDbBlockEnd
  0
BLOCK
  5
13E3
330
13D8
100
AcDbEntity
  8
0
100
AcDbBlockBegin
  2
*D8
 70
     1
 10
0.0
 20
0.0
 30
0.0
  3
*D8
  1

  0
LINE
  5
1427
330
13D8
100
AcDbEntity
  8
dims
 62
     0
370
    -2
100
AcDbLine
 10
5.535613585887453
 20
56.24174829516801
 30
0.0
 11
5.535613585887453
 21
53.196102018705
 31
0.0
  0
LINE
  5
1428
330
13D8
100
AcDbEntity
  8
dims
 62
     0
370
    -2
100
AcDbLine
 10
18.56775707328393
 20
56.24174829516801
 30
0.0
 11
18.56775707328393
 21
53.196102018705
 31
0.0
  0
LINE
  5
1429
330
13D8
100
AcDbEntity
  8
dims
 62
     0
370
    -2
100
AcDbLine
 10
8.528113585887453
 20
55.196102018705
 30
0.0
 11
10.49103056768092
 21
55.196102018705
 31
0.0
  0
LINE
  5
142A
330
13D8
100
AcDbEntity
  8
dims
 62
     0
370
    -2
100
AcDbLine
 10
15.57525707328393
 20
55.196102018705
 30
0.0
 11
13.61234009149045
 21
55.196102018705
 31
0.0
  0
SOLID
  5
142B
330
13D8
100
AcDbEntity
  8
dims
 62
     0
100
AcDbTrace
 10
8.528113585887453
 20
55.69485201870501
 30
0.0
 11
8.528113585887453
 21
54.697352018705
 31
0.0
 12
5.535613585887453
 22
55.196102018705
 32
0.0
 13
5.535613585887453
 23
55.196102018705
 33
0.0
  0
SOLID
  5
142C
330
13D8
100
AcDbEntity
  8
dims
 62
     0
100
AcDbTrace
 10
15.57525707328393
 20
55.69485201870501
 30
0.0
 11
15.57525707328393
 21
54.697352018705
 31
0.0
 12
18.56775707328393
 22
55.196102018705
 32
0.0
 13
18.56775707328393
 23
55.196102018705
 33
0.0
  0
MTEXT
  5
142D
330
13D8
100
AcDbEntity
  8
dims
 62
     0
100
AcDbMText
 10
12.05168532958569
 20
55.196102018705
 30
0.0
 40
1.992499999999999
 41
0.0
 71
     5
 72
     1
  1
\A1;13
  7
ROMANS
 73
     1
 44
1.0
  0
POINT
  5
142E
330
13D8
100
AcDbEntity
  8
Defpoints
 62
     0
100
AcDbPoint
 10
5.535613585887453
 20
57.24174829516801
 30
0.0
  0
POINT
  5
142F
330
13D8
100
AcDbEntity
  8
Defpoints
 62
     0
100
AcDbPoint
 10
18.56775707328393
 20
57.24174829516801
 30
0.0
  0
POINT
  5
1430
330
13D8
100
AcDbEntity
  8
Defpoints
 62
     0
100
AcDbPoint
 10
18.56775707328393
 20
55.196102018705
 30
0.0
  0
ENDBLK
  5
13E4
330
13D8
100
AcDbEntity
  8
0
100
AcDbBlockEnd
  0
BLOCK
  5
13FF
330
13F4
100
AcDbEntity
  8
0
100
AcDbBlockBegin
  2
*D9
 70
     1
 10
0.0
 20
0.0
 30
0.0
  3
*D9
  1

  0
LINE
  5
144F
330
13F4
100
AcDbEntity
  8
dims
 62
     0
370
    -2
100
AcDbLine
 10
7.816863585887453
 20
23.05951931435006
 30
0.0
 11
7.816863585887453
 21
26.76212430773265
 31
0.0
  0
LINE
  5
1450
330
13F4
100
AcDbEntity
  8
dims
 62
     0
370
    -2
100
AcDbLine
 10
16.06686358588747
 20
23.05951931435008
 30
0.0
 11
16.06686358588747
 21
26.76212430773265
 31
0.0
  0
LINE
  5
1451
330
13F4
100
AcDbEntity
  8
dims
 62
     0
370
    -2
100
AcDbLine
 10
10.80936358588745
 20
24.76212430773264
 30
0.0
 11
13.07436358588747
 21
24.76212430773264
 31
0.0
  0
LINE
  5
1452
330
13F4
100
AcDbEntity
  8
dims
 62
     0
370
    -2
100
AcDbLine
 10
16.06686358588747
 20
24.76212430773264
 30
0.0
 11
19.05936358588747
 21
24.76212430773264
 31
0.0
  0
SOLID
  5
1453
330
13F4
100
AcDbEntity
  8
dims
 62
     0
100
AcDbTrace
 10
10.80936358588745
 20
25.26087430773265
 30
0.0
 11
10.80936358588745
 21
24.26337430773264
 31
0.0
 12
7.816863585887453
 22
24.76212430773264
 32
0.0
 13
7.816863585887453
 23
24.76212430773264
 33
0.0
  0
SOLID
  5
1454
330
13F4
100
AcDbEntity
  8
dims
 62
     0
100
AcDbTrace
 10
13.07436358588747
 20
25.26087430773265
 30
0.0
 11
13.07436358588747
 21
24.26337430773264
 31
0.0
 12
16.06686358588747
 22
24.76212430773264
 32
0.0
 13
16.06686358588747
 23
24.76212430773264
 33
0.0
  0
MTEXT
  5
1455
330
13F4
100
AcDbEntity
  8
dims
 62
     0
100
AcDbMText
 10
20.66745882398271
 20
24.76212430773264
 30
0.0
 40
1.992499999999999
 41
0.0
 71
     5
 72
     1
  1
\A1;8{\H1.000000x;\S1/4;}
  7
ROMANS
 73
     1
 44
1.0
  0
POINT
  5
1456
330
13F4
100
AcDbEntity
  8
Defpoints
 62
     0
100
AcDbPoint
 10
7.816863585887453
 20
22.05951931435006
 30
0.0
  0
POINT
  5
1457
330
13F4
100
AcDbEntity
  8
Defpoints
 62
     0
100
AcDbPoint
 10
16.06686358588747
 20
22.05951931435008
 30
0.0
  0
POINT
  5
1458
330
13F4
100
AcDbEntity
  8
Defpoints
 62
     0
100
AcDbPoint
 10
16.06686358588747
 20
24.76212430773264
 30
0.0
  0
ENDBLK
  5
1400
330
13F4
100
AcDbEntity
  8
0
100
AcDbBlockEnd
  0
BLOCK
  5
140D
330
1402
100
AcDbEntity
  8
0
100
AcDbBlockBegin
  2
*D10
 70
     1
 10
0.0
 20
0.0
 30
0.0
  3
*D10
  1

  0
LINE
  5
1463
330
1402
100
AcDbEntity
  8
dims
 62
     0
370
    -2
100
AcDbLine
 10
4.910613585887446
 20
8.293415222041794
 30
0.0
 11
4.910613585887446
 21
12.55233158261177
 31
0.0
  0
LINE
  5
1464
330
1402
100
AcDbEntity
  8
dims
 62
     0
370
    -2
100
AcDbLine
 10
19.16061358588746
 20
8.293415222041794
 30
0.0
 11
19.16061358588746
 21
12.55233158261177
 31
0.0
  0
LINE
  5
1465
330
1402
100
AcDbEntity
  8
dims
 62
     0
370
    -2
100
AcDbLine
 10
7.903113585887446
 20
10.55233158261177
 30
0.0
 11
9.62103025255412
 21
10.55233158261177
 31
0.0
  0
LINE
  5
1466
330
1402
100
AcDbEntity
  8
dims
 62
     0
370
    -2
100
AcDbLine
 10
16.16811358588746
 20
10.55233158261177
 30
0.0
 11
14.45019691922078
 21
10.55233158261177
 31
0.0
  0
SOLID
  5
1467
330
1402
100
AcDbEntity
  8
dims
 62
     0
100
AcDbTrace
 10
7.903113585887446
 20
11.05108158261177
 30
0.0
 11
7.903113585887446
 21
10.05358158261177
 31
0.0
 12
4.910613585887446
 22
10.55233158261177
 32
0.0
 13
4.910613585887446
 23
10.55233158261177
 33
0.0
  0
SOLID
  5
1468
330
1402
100
AcDbEntity
  8
dims
 62
     0
100
AcDbTrace
 10
16.16811358588746
 20
11.05108158261177
 30
0.0
 11
16.16811358588746
 21
10.05358158261177
 31
0.0
 12
19.16061358588746
 22
10.55233158261177
 32
0.0
 13
19.16061358588746
 23
10.55233158261177
 33
0.0
  0
MTEXT
  5
1469
330
1402
100
AcDbEntity
  8
dims
 62
     0
100
AcDbMText
 10
12.03561358588745
 20
10.55233158261177
 30
0.0
 40
1.992499999999999
 41
0.0
 71
     5
 72
     1
  1
\A1;14{\H1.000000x;\S1/4;}
  7
ROMANS
 73
     1
 44
1.0
  0
POINT
  5
146A
330
1402
100
AcDbEntity
  8
Defpoints
 62
     0
100
AcDbPoint
 10
4.910613585887446
 20
7.293415222041794
 30
0.0
  0
POINT
  5
146B
330
1402
100
AcDbEntity
  8
Defpoints
 62
     0
100
AcDbPoint
 10
19.16061358588746
 20
7.293415222041794
 30
0.0
  0
POINT
  5
146C
330
1402
100
AcDbEntity
  8
Defpoints
 62
     0
100
AcDbPoint
 10
19.16061358588746
 20
10.55233158261177
 30
0.0
  0
ENDBLK
  5
140E
330
1402
100
AcDbEntity
  8
0
100
AcDbBlockEnd
  0
BLOCK
  5
141B
330
1410
100
AcDbEntity
  8
0
100
AcDbBlockBegin
  2
*D11
 70
     1
 10
0.0
 20
0.0
 30
0.0
  3
*D11
  1

  0
LINE
  5
1411
330
1410
100
AcDbEntity
  8
dims
 62
     0
370
    -2
100
AcDbLine
 10
4.098113585887475
 20
-7.519767214373224
 30
0.0
 11
4.098113585887475
 21
-3.772364000778054
 31
0.0
  0
LINE
  5
1412
330
1410
100
AcDbEntity
  8
dims
 62
     0
370
    -2
100
AcDbLine
 10
19.97311358588744
 20
-7.519767214373224
 30
0.0
 11
19.97311358588744
 21
-3.772364000778054
 31
0.0
  0
LINE
  5
1413
330
1410
100
AcDbEntity
  8
dims
 62
     0
370
    -2
100
AcDbLine
 10
7.090613585887474
 20
-5.772364000778054
 30
0.0
 11
9.621030252554128
 21
-5.772364000778054
 31
0.0
  0
LINE
  5
1414
330
1410
100
AcDbEntity
  8
dims
 62
     0
370
    -2
100
AcDbLine
 10
16.98061358588744
 20
-5.772364000778054
 30
0.0
 11
14.45019691922079
 21
-5.772364000778054
 31
0.0
  0
SOLID
  5
1415
330
1410
100
AcDbEntity
  8
dims
 62
     0
100
AcDbTrace
 10
7.090613585887474
 20
-5.273614000778054
 30
0.0
 11
7.090613585887474
 21
-6.271114000778054
 31
0.0
 12
4.098113585887475
 22
-5.772364000778054
 32
0.0
 13
4.098113585887475
 23
-5.772364000778054
 33
0.0
  0
SOLID
  5
1416
330
1410
100
AcDbEntity
  8
dims
 62
     0
100
AcDbTrace
 10
16.98061358588744
 20
-5.273614000778054
 30
0.0
 11
16.98061358588744
 21
-6.271114000778054
 31
0.0
 12
19.97311358588744
 22
-5.772364000778054
 32
0.0
 13
19.97311358588744
 23
-5.772364000778054
 33
0.0
  0
MTEXT
  5
1417
330
1410
100
AcDbEntity
  8
dims
 62
     0
100
AcDbMText
 10
12.03561358588746
 20
-5.772364000778054
 30
0.0
 40
1.992499999999999
 41
0.0
 71
     5
 72
     1
  1
\A1;15{\H1.000000x;\S3/4;}
  7
ROMANS
 73
     1
 44
1.0
  0
POINT
  5
1418
330
1410
100
AcDbEntity
  8
Defpoints
 62
     0
100
AcDbPoint
 10
4.098113585887475
 20
-8.519767214373224
 30
0.0
  0
POINT
  5
1419
330
1410
100
AcDbEntity
  8
Defpoints
 62
     0
100
AcDbPoint
 10
19.97311358588744
 20
-8.519767214373224
 30
0.0
  0
POINT
  5
141A
330
1410
100
AcDbEntity
  8
Defpoints
 62
     0
100
AcDbPoint
 10
19.97311358588744
 20
-5.772364000778054
 30
0.0
  0
ENDBLK
  5
141C
330
1410
100
AcDbEntity
  8
0
100
AcDbBlockEnd
  0
BLOCK
  5
147A
330
146F
100
AcDbEntity
  8
0
100
AcDbBlockBegin
  2
*D12
 70
     1
 10
0.0
 20
0.0
 30
0.0
  3
*D12
  1

  0
LINE
  5
1470
330
146F
100
AcDbEntity
  8
dims
 62
     0
370
    -2
100
AcDbLine
 10
7.94186358588746
 20
38.26551221836308
 30
0.0
 11
7.94186358588746
 21
44.0579968956722
 31
0.0
  0
LINE
  5
1471
330
146F
100
AcDbEntity
  8
dims
 62
     0
370
    -2
100
AcDbLine
 10
15.94186358588747
 20
38.26551221836308
 30
0.0
 11
15.94186358588747
 21
44.0579968956722
 31
0.0
  0
LINE
  5
1472
330
146F
100
AcDbEntity
  8
dims
 62
     0
370
    -2
100
AcDbLine
 10
10.93436358588746
 20
42.0579968956722
 30
0.0
 11
11.1876969192208
 21
42.0579968956722
 31
0.0
  0
LINE
  5
1473
330
146F
100
AcDbEntity
  8
dims
 62
     0
370
    -2
100
AcDbLine
 10
12.94936358588747
 20
42.0579968956722
 30
0.0
 11
12.69603025255413
 21
42.0579968956722
 31
0.0
  0
SOLID
  5
1474
330
146F
100
AcDbEntity
  8
dims
 62
     0
100
AcDbTrace
 10
10.93436358588746
 20
42.55674689567221
 30
0.0
 11
10.93436358588746
 21
41.5592468956722
 31
0.0
 12
7.94186358588746
 22
42.0579968956722
 32
0.0
 13
7.94186358588746
 23
42.0579968956722
 33
0.0
  0
SOLID
  5
1475
330
146F
100
AcDbEntity
  8
dims
 62
     0
100
AcDbTrace
 10
12.94936358588747
 20
42.55674689567221
 30
0.0
 11
12.94936358588747
 21
41.5592468956722
 31
0.0
 12
15.94186358588747
 22
42.0579968956722
 32
0.0
 13
15.94186358588747
 23
42.0579968956722
 33
0.0
  0
MTEXT
  5
1476
330
146F
100
AcDbEntity
  8
dims
 62
     0
100
AcDbMText
 10
11.94186358588746
 20
42.0579968956722
 30
0.0
 40
1.992499999999999
 41
0.0
 71
     5
 72
     1
  1
\A1;8
  7
ROMANS
 73
     1
 44
1.0
  0
POINT
  5
1477
330
146F
100
AcDbEntity
  8
Defpoints
 62
     0
100
AcDbPoint
 10
7.94186358588746
 20
37.26551221836308
 30
0.0
  0
POINT
  5
1478
330
146F
100
AcDbEntity
  8
Defpoints
 62
     0
100
AcDbPoint
 10
15.94186358588747
 20
37.26551221836308
 30
0.0
  0
POINT
  5
1479
330
146F
100
AcDbEntity
  8
Defpoints
 62
     0
100
AcDbPoint
 10
15.94186358588747
 20
42.0579968956722
 30
0.0
  0
ENDBLK
  5
147B
330
146F
100
AcDbEntity
  8
0
100
AcDbBlockEnd
  0
BLOCK
  5
14D7
330
14CC
100
AcDbEntity
  8
0
100
AcDbBlockBegin
  2
*D13
 70
     1
 10
0.0
 20
0.0
 30
0.0
  3
*D13
  1

  0
LINE
  5
14CD
330
14CC
100
AcDbEntity
  8
dims
 62
     0
370
    -2
100
AcDbLine
 10
81.02883469964252
 20
49.25
 30
0.0
 11
99.24584753394034
 21
49.25
 31
0.0
  0
LINE
  5
14CE
330
14CC
100
AcDbEntity
  8
dims
 62
     0
370
    -2
100
AcDbLine
 10
81.02883469964252
 20
3.222
 30
0.0
 11
99.24584753394032
 21
3.221999999999995
 31
0.0
  0
LINE
  5
14CF
330
14CC
100
AcDbEntity
  8
dims
 62
     0
370
    -2
100
AcDbLine
 10
97.24584753394033
 20
46.2575
 30
0.0
 11
97.24584753394033
 21
27.32224999999999
 31
0.0
  0
LINE
  5
14D0
330
14CC
100
AcDbEntity
  8
dims
 62
     0
370
    -2
100
AcDbLine
 10
97.24584753394033
 20
6.214499999999996
 30
0.0
 11
97.24584753394033
 21
25.14974999999999
 31
0.0
  0
SOLID
  5
14D1
330
14CC
100
AcDbEntity
  8
dims
 62
     0
100
AcDbTrace
 10
96.74709753394033
 20
46.2575
 30
0.0
 11
97.74459753394033
 21
46.2575
 31
0.0
 12
97.24584753394033
 22
49.25
 32
0.0
 13
97.24584753394033
 23
49.25
 33
0.0
  0
SOLID
  5
14D2
330
14CC
100
AcDbEntity
  8
dims
 62
     0
100
AcDbTrace
 10
96.74709753394033
 20
6.214499999999996
 30
0.0
 11
97.74459753394033
 21
6.214499999999996
 31
0.0
 12
97.24584753394033
 22
3.221999999999996
 32
0.0
 13
97.24584753394033
 23
3.221999999999996
 33
0.0
  0
MTEXT
  5
14D3
330
14CC
100
AcDbEntity
  8
dims
 62
     0
100
AcDbMText
 10
97.24584753394033
 20
26.23600000000001
 30
0.0
 40
1.992499999999999
 41
0.0
 71
     5
 72
     1
  1
\A1;46
  7
ROMANS
 73
     1
 44
1.0
  0
POINT
  5
14D4
330
14CC
100
AcDbEntity
  8
Defpoints
 62
     0
100
AcDbPoint
 10
80.02883469964251
 20
49.25
 30
0.0
  0
POINT
  5
14D5
330
14CC
100
AcDbEntity
  8
Defpoints
 62
     0
100
AcDbPoint
 10
80.02883469964251
 20
3.222000000000001
 30
0.0
  0
POINT
  5
14D6
330
14CC
100
AcDbEntity
  8
Defpoints
 62
     0
100
AcDbPoint
 10
97.24584753394033
 20
3.221999999999996
 30
0.0
  0
ENDBLK
  5
14D8
330
14CC
100
AcDbEntity
  8
0
100
AcDbBlockEnd
  0
BLOCK
  5
14E5
330
14DA
100
AcDbEntity
  8
0
100
AcDbBlockBegin
  2
*D14
 70
     1
 10
0.0
 20
0.0
 30
0.0
  3
*D14
  1

  0
LINE
  5
14DB
330
14DA
100
AcDbEntity
  8
dims
 62
     0
370
    -2
100
AcDbLine
 10
80.52883469964251
 20
2.472000000000001
 30
0.0
 11
89.68852165241434
 21
2.471999999999998
 31
0.0
  0
LINE
  5
14DC
330
14DA
100
AcDbEntity
  8
dims
 62
     0
370
    -2
100
AcDbLine
 10
80.52883469964251
 20
-2.527999999999998
 30
0.0
 11
89.68852165241434
 21
-2.528000000000001
 31
0.0
  0
LINE
  5
14DD
330
14DA
100
AcDbEntity
  8
dims
 62
     0
370
    -2
100
AcDbLine
 10
87.68852165241435
 20
5.464499999999999
 30
0.0
 11
87.68852165241435
 21
8.456999999999998
 31
0.0
  0
LINE
  5
14DE
330
14DA
100
AcDbEntity
  8
dims
 62
     0
370
    -2
100
AcDbLine
 10
87.68852165241435
 20
-5.5205
 30
0.0
 11
87.68852165241435
 21
-8.512999999999999
 31
0.0
  0
SOLID
  5
14DF
330
14DA
100
AcDbEntity
  8
dims
 62
     0
100
AcDbTrace
 10
87.18977165241435
 20
5.464499999999999
 30
0.0
 11
88.18727165241435
 21
5.464499999999999
 31
0.0
 12
87.68852165241435
 22
2.471999999999999
 32
0.0
 13
87.68852165241435
 23
2.471999999999999
 33
0.0
  0
SOLID
  5
14E0
330
14DA
100
AcDbEntity
  8
dims
 62
     0
100
AcDbTrace
 10
87.18977165241435
 20
-5.5205
 30
0.0
 11
88.18727165241435
 21
-5.5205
 31
0.0
 12
87.68852165241435
 22
-2.528
 32
0.0
 13
87.68852165241435
 23
-2.528
 33
0.0
  0
MTEXT
  5
14E1
330
14DA
100
AcDbEntity
  8
dims
 62
     0
100
AcDbMText
 10
87.68852165241435
 20
-0.0279999999999868
 30
0.0
 40
1.992499999999999
 41
0.0
 71
     5
 72
     1
  1
\A1;5
  7
ROMANS
 73
     1
 44
1.0
  0
POINT
  5
14E2
330
14DA
100
AcDbEntity
  8
Defpoints
 62
     0
100
AcDbPoint
 10
79.52883469964252
 20
2.472000000000001
 30
0.0
  0
POINT
  5
14E3
330
14DA
100
AcDbEntity
  8
Defpoints
 62
     0
100
AcDbPoint
 10
79.52883469964252
 20
-2.527999999999998
 30
0.0
  0
POINT
  5
14E4
330
14DA
100
AcDbEntity
  8
Defpoints
 62
     0
100
AcDbPoint
 10
87.68852165241435
 20
-2.528
 30
0.0
  0
ENDBLK
  5
14E6
330
14DA
100
AcDbEntity
  8
0
100
AcDbBlockEnd
  0
BLOCK
  5
1501
330
14F6
100
AcDbEntity
  8
0
100
AcDbBlockBegin
  2
*D16
 70
     1
 10
0.0
 20
0.0
 30
0.0
  3
*D16
  1

  0
LINE
  5
14F7
330
14F6
100
AcDbEntity
  8
dims
 62
     0
370
    -2
100
AcDbLine
 10
54.52883469964252
 20
49.25
 30
0.0
 11
42.36364276416436
 21
49.25
 31
0.0
  0
LINE
  5
14F8
330
14F6
100
AcDbEntity
  8
dims
 62
     0
370
    -2
100
AcDbLine
 10
62.68508469964252
 20
16.36
 30
0.0
 11
42.36364276416435
 21
16.36
 31
0.0
  0
LINE
  5
14F9
330
14F6
100
AcDbEntity
  8
dims
 62
     0
370
    -2
100
AcDbLine
 10
44.36364276416435
 20
46.2575
 30
0.0
 11
44.36364276416435
 21
33.89125
 31
0.0
  0
LINE
  5
14FA
330
14F6
100
AcDbEntity
  8
dims
 62
     0
370
    -2
100
AcDbLine
 10
44.36364276416435
 20
19.3525
 30
0.0
 11
44.36364276416435
 21
31.71875
 31
0.0
  0
SOLID
  5
14FB
330
14F6
100
AcDbEntity
  8
dims
 62
     0
100
AcDbTrace
 10
43.86489276416435
 20
46.2575
 30
0.0
 11
44.86239276416435
 21
46.2575
 31
0.0
 12
44.36364276416436
 22
49.25
 32
0.0
 13
44.36364276416436
 23
49.25
 33
0.0
  0
SOLID
  5
14FC
330
14F6
100
AcDbEntity
  8
dims
 62
     0
100
AcDbTrace
 10
43.86489276416435
 20
19.3525
 30
0.0
 11
44.86239276416435
 21
19.3525
 31
0.0
 12
44.36364276416435
 22
16.36
 32
0.0
 13
44.36364276416435
 23
16.36
 33
0.0
  0
MTEXT
  5
14FD
330
14F6
100
AcDbEntity
  8
dims
 62
     0
100
AcDbMText
 10
44.36364276416434
 20
32.80500000000001
 30
0.0
 40
1.992499999999999
 41
0.0
 71
     5
 72
     1
  1
\A1;33
  7
ROMANS
 73
     1
 44
1.0
  0
POINT
  5
14FE
330
14F6
100
AcDbEntity
  8
Defpoints
 62
     0
100
AcDbPoint
 10
55.52883469964251
 20
49.25
 30
0.0
  0
POINT
  5
14FF
330
14F6
100
AcDbEntity
  8
Defpoints
 62
     0
100
AcDbPoint
 10
63.68508469964251
 20
16.36
 30
0.0
  0
POINT
  5
1500
330
14F6
100
AcDbEntity
  8
Defpoints
 62
     0
100
AcDbPoint
 10
44.36364276416435
 20
16.36
 30
0.0
  0
ENDBLK
  5
1502
330
14F6
100
AcDbEntity
  8
0
100
AcDbBlockEnd
  0
BLOCK
  5
150D
330
1506
100
AcDbEntity
  8
0
100
AcDbBlockBegin
  2
*D17
 70
     1
 10
0.0
 20
0.0
 30
0.0
  3
*D17
  1

  0
LINE
  5
1521
330
1506
100
AcDbEntity
  8
dims
 62
     0
370
    -2
100
AcDbLine
 10
80.45223737488086
 20
-13.74789703279048
 30
0.0
 11
77.26997547011897
 21
-13.74789703279048
 31
0.0
  0
LINE
  5
1522
330
1506
100
AcDbEntity
  8
dims
 62
     0
370
    -2
100
AcDbLine
 10
77.26997547011897
 20
-13.74789703279048
 30
0.0
 11
75.15395842741821
 21
-15.86391407549122
 31
0.0
  0
MTEXT
  5
1523
330
1506
100
AcDbEntity
  8
dims
 62
     0
100
AcDbMText
 10
105.6856897558332
 20
-13.74789703279047
 30
0.0
 40
1.992499999999999
 41
0.0
 71
     5
 72
     1
  1
\A1;BOLT CIRCLE 15" dia. x 8 holes
  7
ROMANS
 73
     1
 44
1.0
  0
SOLID
  5
1524
330
1506
100
AcDbEntity
  8
dims
 62
     0
100
AcDbTrace
 10
74.80128892030143
 20
-15.51124456837443
 30
0.0
 11
75.50662793453501
 21
-16.21658358260801
 31
0.0
 12
73.03794138471747
 22
-17.97993111819195
 32
0.0
 13
73.03794138471747
 23
-17.97993111819195
 33
0.0
  0
POINT
  5
1525
330
1506
100
AcDbEntity
  8
Defpoints
 62
     0
100
AcDbPoint
 10
73.03794138471747
 20
-17.97993111819195
 30
0.0
  0
POINT
  5
1526
330
1506
100
AcDbEntity
  8
Defpoints
 62
     0
100
AcDbPoint
 10
78.2970480697924
 20
-12.72082443311705
 30
0.0
  0
ENDBLK
  5
150E
330
1506
100
AcDbEntity
  8
0
100
AcDbBlockEnd
  0
ENDSEC
  0
SECTION
  2
ENTITIES
  0
LINE
  5
C05
330
18
100
AcDbEntity
  8
legs_base
100
AcDbLine
 10
53.65383469964251
 20
-3.277999999999998
 30
0.0
 11
81.90383469964251
 21
-3.277999999999998
 31
0.0
  0
LINE
  5
C06
330
18
100
AcDbEntity
  8
end_plugs
100
AcDbLine
 10
55.77883469964252
 20
48.50000000000001
 30
0.0
 11
63.56008469964251
 21
48.5
 31
0.0
  0
LINE
  5
C07
330
18
100
AcDbEntity
  8
end_caps
100
AcDbLine
 10
56.02883469964251
 20
49.25
 30
0.0
 11
63.6850846996425
 21
49.25
 31
0.0
  0
LINE
  5
C08
330
18
100
AcDbEntity
  8
end_caps
100
AcDbLine
 10
54.77883469964253
 20
49.25000000000001
 30
0.0
 11
63.6850846996425
 21
49.25
 31
0.0
  0
LINE
  5
C09
330
18
100
AcDbEntity
  8
end_caps
100
AcDbLine
 10
54.65383469964252
 20
50.0
 30
0.0
 11
62.02883469964251
 21
50.0
 31
0.0
  0
LINE
  5
C0A
330
18
100
AcDbEntity
  8
end_caps
100
AcDbLine
 10
54.65383469964251
 20
2.472000000000001
 30
0.0
 11
59.71633469964253
 21
2.472000000000001
 31
0.0
  0
LINE
  5
C0D
330
18
100
AcDbEntity
  8
end_plugs
100
AcDbLine
 10
55.77883469964252
 20
3.972000000000001
 30
0.0
 11
60.6538346996425
 21
3.972000000000001
 31
0.0
  0
LINE
  5
C0F
330
18
100
AcDbEntity
  8
end_caps
100
AcDbLine
 10
55.52883469964251
 20
49.25
 30
0.0
 11
63.6850846996425
 21
49.25
 31
0.0
  0
LINE
  5
C11
330
18
100
AcDbEntity
  8
sonotube
100
AcDbLine
 10
55.52883469964251
 20
49.25
 30
0.0
 11
55.52883469964251
 21
3.222000000000001
 31
0.0
  0
LINE
  5
C12
330
18
100
AcDbEntity
  8
legs_base
100
AcDbLine
 10
53.52883469964251
 20
-2.777999999999998
 30
0.0
 11
53.52883469964251
 21
-3.152999999999998
 31
0.0
  0
LINE
  5
C13
330
18
100
AcDbEntity
  8
end_caps
100
AcDbLine
 10
54.52883469964252
 20
2.972000000000001
 30
0.0
 11
54.52883469964252
 21
2.597000000000004
 31
0.0
  0
LINE
  5
C14
330
18
100
AcDbEntity
  8
end_plugs
100
AcDbLine
 10
55.77883469964252
 20
3.972000000000001
 30
0.0
 11
55.77883469964252
 21
3.222000000000001
 31
0.0
  0
LINE
  5
C15
330
18
100
AcDbEntity
  8
end_plugs
100
AcDbLine
 10
55.77883469964252
 20
48.50000000000001
 30
0.0
 11
55.77883469964252
 21
49.25
 31
0.0
  0
LINE
  5
C16
330
18
100
AcDbEntity
  8
end_caps
100
AcDbLine
 10
54.52883469964253
 20
49.50000000000001
 30
0.0
 11
54.52883469964252
 21
49.875
 31
0.0
  0
LINE
  5
C18
330
18
100
AcDbEntity
  8
sonotube
100
AcDbLine
 10
80.02883469964251
 20
49.25
 30
0.0
 11
80.02883469964251
 21
3.222000000000001
 31
0.0
  0
LINE
  5
C19
330
18
100
AcDbEntity
  8
legs_base
100
AcDbLine
 10
82.02883469964252
 20
-2.777999999999998
 30
0.0
 11
82.02883469964252
 21
-3.152999999999998
 31
0.0
  0
LINE
  5
C1A
330
18
100
AcDbEntity
  8
end_caps
100
AcDbLine
 10
81.02883469964252
 20
2.972000000000001
 30
0.0
 11
81.02883469964252
 21
2.597000000000001
 31
0.0
  0
LINE
  5
C1B
330
18
100
AcDbEntity
  8
end_plugs
100
AcDbLine
 10
79.77883469964251
 20
3.972000000000001
 30
0.0
 11
79.77883469964251
 21
3.222000000000001
 31
0.0
  0
LINE
  5
C1C
330
18
100
AcDbEntity
  8
end_plugs
100
AcDbLine
 10
79.77883469964251
 20
48.5
 30
0.0
 11
79.77883469964251
 21
49.25
 31
0.0
  0
LINE
  5
C1D
330
18
100
AcDbEntity
  8
end_caps
100
AcDbLine
 10
81.02883469964252
 20
49.5
 30
0.0
 11
81.02883469964252
 21
49.875
 31
0.0
  0
LINE
  5
C1F
330
18
100
AcDbEntity
  8
legs_base
100
AcDbLine
 10
53.77883469964252
 20
-2.527999999999998
 30
0.0
 11
81.77883469964251
 21
-2.527999999999998
 31
0.0
  0
LINE
  5
C23
330
18
100
AcDbEntity
  8
legs_base
100
AcDbLine
 10
68.27883469964252
 20
2.472000000000001
 30
0.0
 11
68.27883469964252
 21
-2.527999999999998
 31
0.0
  0
LINE
  5
C24
330
18
100
AcDbEntity
  8
legs_base
100
AcDbLine
 10
67.27883469964251
 20
2.472000000000001
 30
0.0
 11
67.27883469964251
 21
-2.527999999999998
 31
0.0
  0
LINE
  5
C25
330
18
100
AcDbEntity
  8
legs_base
100
AcDbLine
 10
56.02883469964251
 20
2.472000000000001
 30
0.0
 11
56.02883469964251
 21
-2.527999999999998
 31
0.0
  0
LINE
  5
C26
330
18
100
AcDbEntity
  8
legs_base
100
AcDbLine
 10
57.02883469964252
 20
2.472000000000001
 30
0.0
 11
57.02883469964252
 21
-2.527999999999998
 31
0.0
  0
LINE
  5
C27
330
18
100
AcDbEntity
  8
legs_base
100
AcDbLine
 10
78.52883469964251
 20
2.472000000000001
 30
0.0
 11
78.52883469964251
 21
-2.527999999999998
 31
0.0
  0
LINE
  5
C28
330
18
100
AcDbEntity
  8
legs_base
100
AcDbLine
 10
79.52883469964252
 20
2.472000000000001
 30
0.0
 11
79.52883469964252
 21
-2.527999999999998
 31
0.0
  0
LINE
  5
C4C
330
18
100
AcDbEntity
  8
port
100
AcDbLine
 10
63.56008469964251
 20
16.35999999999999
 30
0.0
 11
71.81008469964251
 21
16.35999999999999
 31
0.0
  0
LINE
  5
C4E
330
18
100
AcDbEntity
  8
port
100
AcDbLine
 10
63.68508469964251
 20
49.25
 30
0.0
 11
63.68508469964251
 21
16.36
 31
0.0
  0
LINE
  5
C4F
330
18
100
AcDbEntity
  8
port
100
AcDbLine
 10
71.68508469964253
 20
49.25
 30
0.0
 11
71.68508469964251
 21
16.36
 31
0.0
  0
LINE
  5
C50
330
18
100
AcDbEntity
  8
end_plugs
100
AcDbLine
 10
71.81008469964253
 20
48.50000000000002
 30
0.0
 11
79.77883469964251
 21
48.5
 31
0.0
  0
LINE
  5
C55
330
18
100
AcDbEntity
  8
end_caps
100
AcDbLine
 10
80.90383469964251
 20
50.0
 30
0.0
 11
73.52883469964251
 21
50.0
 31
0.0
  0
LINE
  5
CA0
330
18
100
AcDbEntity
  8
end_caps
100
AcDbLine
 10
62.02883469964251
 20
50.0
 30
0.0
 11
63.18508469964252
 21
50.0
 31
0.0
  0
LINE
  5
FB7
330
18
100
AcDbEntity
  8
end_caps
100
AcDbLine
 10
54.77883469964252
 20
3.222000000000001
 30
0.0
 11
59.84133469964253
 21
3.222000000000001
 31
0.0
  0
LINE
  5
FB9
330
18
100
AcDbEntity
  8
end_caps
100
AcDbLine
 10
59.84133469964254
 20
2.597000000000002
 30
0.0
 11
59.84133469964253
 21
3.222000000000001
 31
0.0
  0
LINE
  5
FBC
330
18
100
AcDbEntity
  8
end_plugs
100
AcDbLine
 10
60.6538346996425
 20
3.972000000000001
 30
0.0
 11
60.65383469964252
 21
3.222000000000001
 31
0.0
  0
LINE
  5
FBE
330
18
100
AcDbEntity
  8
end_caps
100
AcDbLine
 10
80.77883469964252
 20
3.222000000000001
 30
0.0
 11
75.7163346996425
 21
3.222000000000001
 31
0.0
  0
LINE
  5
FC2
330
18
100
AcDbEntity
  8
end_plugs
100
AcDbLine
 10
79.77883469964251
 20
3.972000000000001
 30
0.0
 11
74.90383469964251
 21
3.972000000000001
 31
0.0
  0
INSERT
  5
117F
330
18
100
AcDbEntity
  8
driver
100
AcDbBlockReference
  2
driver_side_view
 10
67.77883469964251
 20
11.18449999999999
 30
0.0
  0
INSERT
  5
11A2
330
18
100
AcDbEntity
  8
driver
100
AcDbBlockReference
  2
driver_face_view
 10
67.77883469964251
 20
-12.720824433117
 30
0.0
  0
LINE
  5
11AC
330
18
100
AcDbEntity
  8
gasket foam
100
AcDbLine
 10
60.59133469964252
 20
0.9719999999999744
 30
0.0
 11
60.59133469964251
 21
0.8469999999999746
 31
0.0
  0
LINE
  5
11AD
330
18
100
AcDbEntity
  8
gasket foam
100
AcDbLine
 10
60.09133469964252
 20
0.9720000000000029
 30
0.0
 11
60.09133469964251
 21
0.847000000000003
 31
0.0
  0
LINE
  5
11AE
330
18
100
AcDbEntity
  8
gasket foam
100
AcDbLine
 10
60.09133469964251
 20
0.847000000000003
 30
0.0
 11
60.59133469964251
 21
0.8469999999999746
 31
0.0
  0
LINE
  5
11AF
330
18
100
AcDbEntity
  8
gasket foam
100
AcDbLine
 10
60.59133469964252
 20
0.9719999999999744
 30
0.0
 11
60.09133469964252
 21
0.9720000000000029
 31
0.0
  0
LINE
  5
11B0
330
18
100
AcDbEntity
  8
gasket foam
100
AcDbLine
 10
74.96633469964251
 20
0.9719999999999748
 30
0.0
 11
75.46633469964252
 21
0.9720000000000032
 31
0.0
  0
LINE
  5
11B1
330
18
100
AcDbEntity
  8
gasket foam
100
AcDbLine
 10
75.46633469964252
 20
0.8470000000000032
 30
0.0
 11
74.96633469964251
 21
0.8469999999999748
 31
0.0
  0
LINE
  5
11B3
330
18
100
AcDbEntity
  8
gasket foam
100
AcDbLine
 10
75.46633469964252
 20
0.9720000000000032
 30
0.0
 11
75.46633469964252
 21
0.8470000000000032
 31
0.0
  0
LINE
  5
11B4
330
18
100
AcDbEntity
  8
gasket foam
100
AcDbLine
 10
74.96633469964251
 20
0.9719999999999748
 30
0.0
 11
74.96633469964251
 21
0.8469999999999748
 31
0.0
  0
LINE
  5
1205
330
18
100
AcDbEntity
  8
sonotube
  6
HIDDEN
100
AcDbLine
 10
55.77883469964252
 20
49.25
 30
0.0
 11
55.77883469964252
 21
3.222000000000001
 31
0.0
  0
LINE
  5
1206
330
18
100
AcDbEntity
  8
sonotube
  6
HIDDEN
100
AcDbLine
 10
79.77883469964251
 20
49.25
 30
0.0
 11
79.77883469964251
 21
3.222000000000001
 31
0.0
  0
LINE
  5
1211
330
18
100
AcDbEntity
  8
port
100
AcDbLine
 10
63.56008469964251
 20
49.25
 30
0.0
 11
63.56008469964251
 21
16.35999999999999
 31
0.0
  0
LINE
  5
1212
330
18
100
AcDbEntity
  8
port
100
AcDbLine
 10
71.81008469964253
 20
49.25
 30
0.0
 11
71.81008469964251
 21
16.35999999999999
 31
0.0
  0
LINE
  5
1213
330
18
100
AcDbEntity
  8
end_plugs
100
AcDbLine
 10
71.81008469964253
 20
49.24999999999998
 30
0.0
 11
79.77883469964251
 21
49.25
 31
0.0
  0
LINE
  5
1214
330
18
100
AcDbEntity
  8
end_plugs
100
AcDbLine
 10
55.77883469964252
 20
49.24999999999999
 30
0.0
 11
63.56008469964251
 21
49.25
 31
0.0
  0
LINE
  5
1215
330
18
100
AcDbEntity
  8
end_plugs
100
AcDbLine
 10
63.56008469964251
 20
48.5
 30
0.0
 11
63.56008469964251
 21
49.24999999999999
 31
0.0
  0
LINE
  5
1216
330
18
100
AcDbEntity
  8
end_plugs
100
AcDbLine
 10
71.81008469964253
 20
48.50000000000002
 30
0.0
 11
71.81008469964253
 21
49.25000000000001
 31
0.0
  0
LINE
  5
1217
330
18
100
AcDbEntity
  8
end_plugs
100
AcDbLine
 10
55.77883469964252
 20
3.222000000000001
 30
0.0
 11
60.65383469964252
 21
3.222000000000001
 31
0.0
  0
LINE
  5
1218
330
18
100
AcDbEntity
  8
end_plugs
100
AcDbLine
 10
79.77883469964251
 20
3.222000000000001
 30
0.0
 11
74.9038346996425
 21
3.222000000000001
 31
0.0
  0
LINE
  5
121E
330
18
100
AcDbEntity
  8
hasket rubber
100
AcDbLine
 10
60.59133469964252
 20
3.222000000000001
 30
0.0
 11
59.96633469964252
 21
3.222000000000001
 31
0.0
  0
LINE
  5
121F
330
18
100
AcDbEntity
  8
hasket rubber
100
AcDbLine
 10
59.96633469964253
 20
2.597000000000001
 30
0.0
 11
59.96633469964252
 21
3.222000000000001
 31
0.0
  0
LINE
  5
1223
330
18
100
AcDbEntity
  8
hasket rubber
100
AcDbLine
 10
60.59133469964251
 20
2.597000000000001
 30
0.0
 11
60.59133469964251
 21
2.722000000000001
 31
0.0
  0
LINE
  5
1224
330
18
100
AcDbEntity
  8
hasket rubber
100
AcDbLine
 10
60.52883469964251
 20
2.534500000000001
 30
0.0
 11
60.02883469964253
 21
2.534500000000001
 31
0.0
  0
LINE
  5
1225
330
18
100
AcDbEntity
  8
hasket rubber
100
AcDbLine
 10
60.59133469964251
 20
3.097000000000001
 30
0.0
 11
60.59133469964252
 21
3.222000000000001
 31
0.0
  0
ARC
  5
1226
330
18
100
AcDbEntity
  8
hasket rubber
100
AcDbCircle
 10
60.02883469964253
 20
2.597000000000001
 30
0.0
 40
0.0625
100
AcDbArc
 50
179.9999999999993
 51
270.0
  0
ARC
  5
1227
330
18
100
AcDbEntity
  8
hasket rubber
100
AcDbCircle
 10
60.52883469964251
 20
2.597000000000001
 30
0.0
 40
0.0625
100
AcDbArc
 50
270.0
 51
0.0
  0
LINE
  5
122A
330
18
100
AcDbEntity
  8
hasket rubber
100
AcDbLine
 10
60.18508469964253
 20
2.722000000000001
 30
0.0
 11
60.18508469964252
 21
2.534500000000001
 31
0.0
  0
LINE
  5
122B
330
18
100
AcDbEntity
  8
hasket rubber
100
AcDbLine
 10
60.49758469964251
 20
2.722000000000001
 30
0.0
 11
60.4975846996425
 21
2.534500000000001
 31
0.0
  0
LINE
  5
122C
330
18
100
AcDbEntity
  8
hasket rubber
100
AcDbLine
 10
75.06008469964251
 20
2.721999999999994
 30
0.0
 11
75.06008469964253
 21
2.534499999999994
 31
0.0
  0
LINE
  5
122D
330
18
100
AcDbEntity
  8
hasket rubber
100
AcDbLine
 10
75.37258469964251
 20
2.721999999999994
 30
0.0
 11
75.37258469964251
 21
2.534499999999994
 31
0.0
  0
LINE
  5
122E
330
18
100
AcDbEntity
  8
hasket rubber
100
AcDbLine
 10
74.96633469964251
 20
2.596999999999994
 30
0.0
 11
74.96633469964251
 21
2.721999999999994
 31
0.0
  0
LINE
  5
122F
330
18
100
AcDbEntity
  8
hasket rubber
100
AcDbLine
 10
75.5913346996425
 20
2.596999999999994
 30
0.0
 11
75.59133469964251
 21
3.221999999999994
 31
0.0
  0
LINE
  5
1230
330
18
100
AcDbEntity
  8
hasket rubber
100
AcDbLine
 10
74.96633469964251
 20
3.096999999999994
 30
0.0
 11
74.96633469964251
 21
3.221999999999994
 31
0.0
  0
LINE
  5
1231
330
18
100
AcDbEntity
  8
hasket rubber
100
AcDbLine
 10
74.96633469964251
 20
3.221999999999994
 30
0.0
 11
75.59133469964251
 21
3.221999999999994
 31
0.0
  0
ARC
  5
1232
330
18
100
AcDbEntity
  8
hasket rubber
100
AcDbCircle
 10
75.02883469964252
 20
2.596999999999994
 30
0.0
 40
0.0625
100
AcDbArc
 50
180.0
 51
270.0
  0
LINE
  5
1233
330
18
100
AcDbEntity
  8
hasket rubber
100
AcDbLine
 10
75.02883469964252
 20
2.534499999999994
 30
0.0
 11
75.5288346996425
 21
2.534499999999994
 31
0.0
  0
ARC
  5
1234
330
18
100
AcDbEntity
  8
hasket rubber
100
AcDbCircle
 10
75.5288346996425
 20
2.596999999999994
 30
0.0
 40
0.0625
100
AcDbArc
 50
270.0
 51
0.0000000000006247
  0
LINE
  5
1237
330
18
100
AcDbEntity
  8
end_caps
100
AcDbLine
 10
75.71633469964249
 20
2.597000000000001
 30
0.0
 11
75.7163346996425
 21
3.222000000000001
 31
0.0
  0
LINE
  5
1238
330
18
100
AcDbEntity
  8
end_caps
100
AcDbLine
 10
80.90383469964251
 20
2.472000000000001
 30
0.0
 11
75.84133469964249
 21
2.472000000000001
 31
0.0
  0
LINE
  5
12A6
330
18
100
AcDbEntity
  8
grille
100
AcDbLine
 10
58.52883469964252
 20
50.74999999999999
 30
0.0
 11
60.7788346996425
 21
50.75
 31
0.0
  0
LINE
  5
12A7
330
18
100
AcDbEntity
  8
grille
100
AcDbLine
 10
58.27883469964252
 20
50.0
 30
0.0
 11
61.27883469964251
 21
50.0
 31
0.0
  0
LINE
  5
12AA
330
18
100
AcDbEntity
  8
grille
100
AcDbLine
 10
58.27883469964252
 20
50.49999999999999
 30
0.0
 11
58.27883469964252
 21
50.0
 31
0.0
  0
LINE
  5
12AB
330
18
100
AcDbEntity
  8
grille
100
AcDbLine
 10
61.2788346996425
 20
50.24999999999999
 30
0.0
 11
61.27883469964251
 21
50.0
 31
0.0
  0
LINE
  5
12AE
330
18
100
AcDbEntity
  8
grille
100
AcDbLine
 10
74.27883469964251
 20
50.25
 30
0.0
 11
74.27883469964251
 21
50.0
 31
0.0
  0
LINE
  5
12B0
330
18
100
AcDbEntity
  8
grille
100
AcDbLine
 10
77.27883469964251
 20
50.0
 30
0.0
 11
74.27883469964251
 21
50.0
 31
0.0
  0
LINE
  5
12B1
330
18
100
AcDbEntity
  8
grille
100
AcDbLine
 10
77.27883469964251
 20
50.5
 30
0.0
 11
77.27883469964251
 21
50.0
 31
0.0
  0
LINE
  5
12B2
330
18
100
AcDbEntity
  8
grille
100
AcDbLine
 10
77.02883469964252
 20
50.75
 30
0.0
 11
74.77883469964251
 21
50.75
 31
0.0
  0
LINE
  5
12B7
330
18
100
AcDbEntity
  8
end_plugs
100
AcDbLine
 10
74.90383469964251
 20
3.972000000000001
 30
0.0
 11
74.9038346996425
 21
3.222000000000001
 31
0.0
  0
LINE
  5
12DD
330
18
100
AcDbEntity
  8
legs_base
100
AcDbLine
 10
67.27883469964251
 20
2.472000000000001
 30
0.0
 11
68.27883469964252
 21
2.472000000000001
 31
0.0
  0
LINE
  5
12DE
330
18
100
AcDbEntity
  8
end_caps
100
AcDbLine
 10
63.68508469964251
 20
49.25
 30
0.0
 11
63.68508469964252
 21
49.5
 31
0.0
  0
LINE
  5
12DF
330
18
100
AcDbEntity
  8
end_caps
100
AcDbLine
 10
71.68508469964253
 20
49.25
 30
0.0
 11
71.68508469964255
 21
49.49999999999999
 31
0.0
  0
LINE
  5
12E0
330
18
100
AcDbEntity
  8
end_caps
100
AcDbLine
 10
71.68508469964253
 20
49.25
 30
0.0
 11
80.02883469964251
 21
49.25
 31
0.0
  0
LINE
  5
12E1
330
18
100
AcDbEntity
  8
end_caps
100
AcDbLine
 10
71.68508469964253
 20
49.25
 30
0.0
 11
80.77883469964252
 21
49.25
 31
0.0
  0
LINE
  5
12E2
330
18
100
AcDbEntity
  8
end_caps
100
AcDbLine
 10
71.68508469964253
 20
49.25
 30
0.0
 11
79.52883469964252
 21
49.25
 31
0.0
  0
LINE
  5
12E3
330
18
100
AcDbEntity
  8
end_caps
100
AcDbLine
 10
72.18508469964254
 20
50.0
 30
0.0
 11
73.52883469964251
 21
50.0
 31
0.0
  0
ARC
  5
12E4
330
18
100
AcDbEntity
  8
end_caps
100
AcDbCircle
 10
63.18508469964252
 20
49.49999999999999
 30
0.0
 40
0.5
100
AcDbArc
 50
0.0000000000005089
 51
89.99999999999975
  0
ARC
  5
12E5
330
18
100
AcDbEntity
  8
end_caps
100
AcDbCircle
 10
72.18508469964254
 20
49.49999999999999
 30
0.0
 40
0.5
100
AcDbArc
 50
90.00000000000021
 51
180.0
  0
ARC
  5
12E7
330
18
100
AcDbEntity
  8
grille
100
AcDbCircle
 10
60.7788346996425
 20
50.25
 30
0.0
 40
0.5
100
AcDbArc
 50
359.9999999999994
 51
90.00000000000017
  0
ARC
  5
12E8
330
18
100
AcDbEntity
  8
grille
100
AcDbCircle
 10
74.77883469964251
 20
50.25
 30
0.0
 40
0.5
100
AcDbArc
 50
89.99999999999984
 51
180.0
  0
LINE
  5
12FD
330
18
100
AcDbEntity
  8
legs_base
100
AcDbLine
 10
-2.214386414112539
 20
-20.16231752491135
 30
0.0
 11
26.28561358588746
 21
-20.16231752491135
 31
0.0
  0
LINE
  5
12FE
330
18
100
AcDbEntity
  8
legs_base
100
AcDbLine
 10
-2.214386414112539
 20
-20.91231752491135
 30
0.0
 11
26.28561358588746
 21
-20.91231752491135
 31
0.0
  0
LINE
  5
12FF
330
18
100
AcDbEntity
  8
end_plugs
100
AcDbLine
 10
4.910613585887446
 20
7.293415222041794
 30
0.0
 11
4.91061358588746
 21
6.543415222041794
 31
0.0
  0
LINE
  5
1300
330
18
100
AcDbEntity
  8
end_plugs
100
AcDbLine
 10
0.0356135858874609
 20
7.293415222041794
 30
0.0
 11
0.0356135858874609
 21
6.543415222041794
 31
0.0
  0
LINE
  5
1303
330
18
100
AcDbEntity
  8
legs_base
100
AcDbLine
 10
-2.214386414112539
 20
-20.16231752491135
 30
0.0
 11
-2.214386414112539
 21
-20.91231752491135
 31
0.0
  0
LINE
  5
1304
330
18
100
AcDbEntity
  8
end_plugs
100
AcDbLine
 10
0.0356135858874609
 20
6.543415222041794
 30
0.0
 11
4.91061358588746
 21
6.543415222041794
 31
0.0
  0
LINE
  5
1305
330
18
100
AcDbEntity
  8
end_caps
100
AcDbLine
 10
-1.214386414112539
 20
-8.519767214373224
 30
0.0
 11
4.098113585887475
 21
-8.519767214373224
 31
0.0
  0
LINE
  5
1306
330
18
100
AcDbEntity
  8
end_caps
100
AcDbLine
 10
-1.214386414112539
 20
-9.269767214373224
 30
0.0
 11
4.098113585887482
 21
-9.269767214373224
 31
0.0
  0
LINE
  5
1307
330
18
100
AcDbEntity
  8
end_caps
100
AcDbLine
 10
-1.214386414112539
 20
-8.519767214373224
 30
0.0
 11
-1.214386414112539
 21
-9.269767214373224
 31
0.0
  0
LINE
  5
130F
330
18
100
AcDbEntity
  8
end_caps
100
AcDbLine
 10
4.098113585887482
 20
-9.269767214373224
 30
0.0
 11
4.098113585887475
 21
-8.519767214373224
 31
0.0
  0
LINE
  5
1315
330
18
100
AcDbEntity
  8
end_plugs
100
AcDbLine
 10
0.0356135858874609
 20
7.293415222041794
 30
0.0
 11
4.910613585887446
 21
7.293415222041794
 31
0.0
  0
LINE
  5
1316
330
18
100
AcDbEntity
  8
end_plugs
100
AcDbLine
 10
19.16061358588746
 20
7.293415222041794
 30
0.0
 11
19.16061358588744
 21
6.543415222041794
 31
0.0
  0
LINE
  5
1317
330
18
100
AcDbEntity
  8
end_plugs
100
AcDbLine
 10
24.03561358588746
 20
7.293415222041794
 30
0.0
 11
24.03561358588746
 21
6.543415222041794
 31
0.0
  0
LINE
  5
1318
330
18
100
AcDbEntity
  8
end_caps
100
AcDbLine
 10
25.28561358588746
 20
-9.269767214373224
 30
0.0
 11
19.97311358588744
 21
-9.269767214373224
 31
0.0
  0
LINE
  5
1319
330
18
100
AcDbEntity
  8
end_plugs
100
AcDbLine
 10
24.03561358588746
 20
6.543415222041794
 30
0.0
 11
19.16061358588744
 21
6.543415222041794
 31
0.0
  0
LINE
  5
131A
330
18
100
AcDbEntity
  8
end_caps
100
AcDbLine
 10
25.28561358588746
 20
-8.519767214373224
 30
0.0
 11
19.97311358588744
 21
-8.519767214373224
 31
0.0
  0
LINE
  5
1321
330
18
100
AcDbEntity
  8
end_caps
100
AcDbLine
 10
19.97311358588744
 20
-9.269767214373224
 30
0.0
 11
19.97311358588744
 21
-8.519767214373224
 31
0.0
  0
LINE
  5
1327
330
18
100
AcDbEntity
  8
legs_base
100
AcDbLine
 10
26.28561358588746
 20
-20.16231752491135
 30
0.0
 11
26.28561358588746
 21
-20.91231752491135
 31
0.0
  0
LINE
  5
1328
330
18
100
AcDbEntity
  8
end_caps
100
AcDbLine
 10
25.28561358588746
 20
-8.519767214373224
 30
0.0
 11
25.28561358588746
 21
-9.269767214373224
 31
0.0
  0
LINE
  5
1329
330
18
100
AcDbEntity
  8
end_plugs
100
AcDbLine
 10
24.03561358588746
 20
7.293415222041794
 30
0.0
 11
19.16061358588746
 21
7.293415222041794
 31
0.0
  0
LINE
  5
1330
330
18
100
AcDbEntity
  8
end_plugs
100
AcDbLine
 10
7.816863585887453
 20
21.30951931435006
 30
0.0
 11
7.816863585887453
 21
22.05951931435006
 31
0.0
  0
LINE
  5
1331
330
18
100
AcDbEntity
  8
end_plugs
100
AcDbLine
 10
0.0356135858874609
 20
21.30951931435007
 30
0.0
 11
0.0356135858874609
 21
22.05951931435007
 31
0.0
  0
LINE
  5
1332
330
18
100
AcDbEntity
  8
end_plugs
100
AcDbLine
 10
0.0356135858874609
 20
21.30951931435007
 30
0.0
 11
7.816863585887453
 21
21.30951931435006
 31
0.0
  0
LINE
  5
1333
330
18
100
AcDbEntity
  8
end_caps
100
AcDbLine
 10
0.2856135858874609
 20
37.26551221836308
 30
0.0
 11
7.941863585887453
 21
37.26551221836308
 31
0.0
  0
LINE
  5
1334
330
18
100
AcDbEntity
  8
end_caps
100
AcDbLine
 10
-1.214386414112539
 20
37.26551221836308
 30
0.0
 11
7.941863585887453
 21
37.26551221836308
 31
0.0
  0
LINE
  5
1335
330
18
100
AcDbEntity
  8
end_caps
100
AcDbLine
 10
-0.2143864141125391
 20
37.26551221836308
 30
0.0
 11
7.941863585887453
 21
37.26551221836308
 31
0.0
  0
LINE
  5
1336
330
18
100
AcDbEntity
  8
end_plugs
100
AcDbLine
 10
0.0356135858874609
 20
22.05951931435006
 30
0.0
 11
7.816863585887453
 21
22.05951931435007
 31
0.0
  0
LINE
  5
1337
330
18
100
AcDbEntity
  8
end_caps
100
AcDbLine
 10
-1.214386414112539
 20
38.01551221836308
 30
0.0
 11
6.285613585887453
 21
38.01551221836308
 31
0.0
  0
LINE
  5
1338
330
18
100
AcDbEntity
  8
end_caps
100
AcDbLine
 10
-1.214386414112539
 20
37.26551221836308
 30
0.0
 11
-1.214386414112539
 21
38.01551221836308
 31
0.0
  0
LINE
  5
1339
330
18
100
AcDbEntity
  8
grille
100
AcDbLine
 10
2.660613585887467
 20
57.991748295168
 30
0.0
 11
5.035613585887446
 21
57.991748295168
 31
0.0
  0
LINE
  5
133A
330
18
100
AcDbEntity
  8
grille
100
AcDbLine
 10
2.535613585887467
 20
57.24174829516801
 30
0.0
 11
5.535613585887453
 21
57.24174829516801
 31
0.0
  0
LINE
  5
133B
330
18
100
AcDbEntity
  8
grille
100
AcDbLine
 10
2.535613585887467
 20
57.86674829516801
 30
0.0
 11
2.660613585887467
 21
57.991748295168
 31
0.0
  0
LINE
  5
133C
330
18
100
AcDbEntity
  8
grille
100
AcDbLine
 10
2.535613585887467
 20
57.86674829516801
 30
0.0
 11
2.535613585887467
 21
57.24174829516801
 31
0.0
  0
LINE
  5
133D
330
18
100
AcDbEntity
  8
grille
100
AcDbLine
 10
5.535613585887446
 20
57.491748295168
 30
0.0
 11
5.535613585887453
 21
57.24174829516801
 31
0.0
  0
ARC
  5
133E
330
18
100
AcDbEntity
  8
grille
100
AcDbCircle
 10
5.035613585887446
 20
57.49174829516801
 30
0.0
 40
0.5
100
AcDbArc
 50
359.9999999999994
 51
90.00000000000017
  0
ARC
  5
133F
330
18
100
AcDbEntity
  8
end_caps
100
AcDbCircle
 10
7.441863585887467
 20
37.51551221836308
 30
0.0
 40
0.5
100
AcDbArc
 50
0.0000000000005089
 51
89.99999999999975
  0
LINE
  5
1340
330
18
100
AcDbEntity
  8
end_caps
100
AcDbLine
 10
7.94186358588746
 20
37.26551221836308
 30
0.0
 11
7.941863585887467
 21
37.51551221836308
 31
0.0
  0
LINE
  5
1341
330
18
100
AcDbEntity
  8
end_caps
100
AcDbLine
 10
6.285613585887453
 20
38.01551221836308
 30
0.0
 11
7.441863585887467
 21
38.01551221836307
 31
0.0
  0
LINE
  5
1342
330
18
100
AcDbEntity
  8
end_plugs
100
AcDbLine
 10
16.06686358588747
 20
21.30951931435009
 30
0.0
 11
16.06686358588747
 21
22.05951931435008
 31
0.0
  0
LINE
  5
1343
330
18
100
AcDbEntity
  8
end_plugs
100
AcDbLine
 10
24.03561358588746
 20
21.30951931435006
 30
0.0
 11
24.03561358588746
 21
22.05951931435007
 31
0.0
  0
LINE
  5
1344
330
18
100
AcDbEntity
  8
end_plugs
100
AcDbLine
 10
16.06686358588747
 20
21.30951931435009
 30
0.0
 11
24.03561358588746
 21
21.30951931435006
 31
0.0
  0
LINE
  5
1346
330
18
100
AcDbEntity
  8
end_caps
100
AcDbLine
 10
15.94186358588747
 20
37.26551221836308
 30
0.0
 11
25.28561358588746
 21
37.26551221836308
 31
0.0
  0
LINE
  5
1348
330
18
100
AcDbEntity
  8
end_plugs
100
AcDbLine
 10
16.06686358588747
 20
22.05951931435004
 30
0.0
 11
24.03561358588746
 21
22.05951931435007
 31
0.0
  0
LINE
  5
1349
330
18
100
AcDbEntity
  8
end_caps
100
AcDbLine
 10
25.28561358588746
 20
38.01551221836308
 30
0.0
 11
17.78561358588746
 21
38.01551221836308
 31
0.0
  0
ARC
  5
134A
330
18
100
AcDbEntity
  8
end_caps
100
AcDbCircle
 10
16.44186358588749
 20
37.51551221836308
 30
0.0
 40
0.5
100
AcDbArc
 50
90.00000000000021
 51
180.0
  0
LINE
  5
134B
330
18
100
AcDbEntity
  8
end_caps
100
AcDbLine
 10
15.94186358588747
 20
37.26551221836308
 30
0.0
 11
15.94186358588749
 21
37.51551221836308
 31
0.0
  0
LINE
  5
134C
330
18
100
AcDbEntity
  8
end_caps
100
AcDbLine
 10
16.44186358588749
 20
38.01551221836307
 30
0.0
 11
17.78561358588746
 21
38.01551221836308
 31
0.0
  0
LINE
  5
134D
330
18
100
AcDbEntity
  8
grille
100
AcDbLine
 10
21.41061358588746
 20
57.991748295168
 30
0.0
 11
19.03561358588746
 21
57.991748295168
 31
0.0
  0
LINE
  5
134E
330
18
100
AcDbEntity
  8
grille
100
AcDbLine
 10
21.53561358588746
 20
57.24174829516801
 30
0.0
 11
18.53561358588746
 21
57.24174829516801
 31
0.0
  0
LINE
  5
134F
330
18
100
AcDbEntity
  8
grille
100
AcDbLine
 10
18.53561358588746
 20
57.49174829516801
 30
0.0
 11
18.53561358588746
 21
57.24174829516801
 31
0.0
  0
ARC
  5
1350
330
18
100
AcDbEntity
  8
grille
100
AcDbCircle
 10
19.03561358588746
 20
57.49174829516801
 30
0.0
 40
0.5
100
AcDbArc
 50
89.99999999999984
 51
180.0
  0
LINE
  5
1351
330
18
100
AcDbEntity
  8
grille
100
AcDbLine
 10
21.53561358588746
 20
57.86674829516801
 30
0.0
 11
21.41061358588746
 21
57.991748295168
 31
0.0
  0
LINE
  5
1352
330
18
100
AcDbEntity
  8
grille
100
AcDbLine
 10
21.53561358588746
 20
57.86674829516801
 30
0.0
 11
21.53561358588746
 21
57.24174829516801
 31
0.0
  0
LINE
  5
1353
330
18
100
AcDbEntity
  8
end_caps
100
AcDbLine
 10
25.28561358588746
 20
37.26551221836308
 30
0.0
 11
25.28561358588746
 21
38.01551221836308
 31
0.0
  0
DIMENSION
  5
1383
330
18
100
AcDbEntity
  8
dims
100
AcDbDimension
  2
*D2
 10
26.28561358588746
 20
-26.71774194407993
 30
0.0
 11
12.03561358588746
 21
-26.71774194407993
 31
0.0
 70
    32
 71
     5
 42
28.5
  3
STANDARD
100
AcDbAlignedDimension
 13
-2.214386414112539
 23
-20.91231752491135
 33
0.0
 14
26.28561358588746
 24
-20.91231752491135
 34
0.0
100
AcDbRotatedDimension
  0
DIMENSION
  5
1391
330
18
100
AcDbEntity
  8
dims
100
AcDbDimension
  2
*D3
 10
25.28561358588746
 20
-13.08280622484704
 30
0.0
 11
12.03561358588746
 21
-13.08280622484704
 31
0.0
 70
    32
 71
     5
 42
26.5
  3
STANDARD
100
AcDbAlignedDimension
 13
-1.214386414112539
 23
-9.269767214373224
 33
0.0
 14
25.28561358588746
 24
-9.269767214373224
 34
0.0
100
AcDbRotatedDimension
  0
DIMENSION
  5
139F
330
18
100
AcDbEntity
  8
dims
100
AcDbDimension
  2
*D4
 10
24.03561358588746
 20
2.081239482460006
 30
0.0
 11
12.03561358588746
 21
2.081239482460006
 31
0.0
 70
    32
 71
     5
 42
24.0
  3
STANDARD
100
AcDbAlignedDimension
 13
0.0356135858874609
 23
6.543415222041794
 33
0.0
 14
24.03561358588746
 24
6.543415222041794
 34
0.0
100
AcDbRotatedDimension
  0
DIMENSION
  5
13AD
330
18
100
AcDbEntity
  8
dims
100
AcDbDimension
  2
*D5
 10
24.03561358588746
 20
16.45118964391213
 30
0.0
 11
12.03561358588746
 21
16.45118964391213
 31
0.0
 70
    32
 71
     5
 42
24.0
  3
STANDARD
100
AcDbAlignedDimension
 13
0.0356135858874609
 23
21.30951931435007
 33
0.0
 14
24.03561358588746
 24
21.30951931435006
 34
0.0
100
AcDbRotatedDimension
  0
DIMENSION
  5
13BB
330
18
100
AcDbEntity
  8
dims
100
AcDbDimension
  2
*D6
 10
25.28561358588746
 20
32.37343764592935
 30
0.0
 11
12.03561358588746
 21
32.37343764592935
 31
0.0
 70
    32
 71
     5
 42
26.5
  3
STANDARD
100
AcDbAlignedDimension
 13
-1.214386414112539
 23
37.26551221836308
 33
0.0
 14
25.28561358588746
 24
37.26551221836308
 34
0.0
100
AcDbRotatedDimension
  0
DIMENSION
  5
13C9
330
18
100
AcDbEntity
  8
dims
100
AcDbDimension
  2
*D7
 10
21.53561358588746
 20
50.35016903804026
 30
0.0
 11
12.03561358588746
 21
50.35016903804026
 31
0.0
 70
    32
 71
     5
 42
18.99999999999999
  3
STANDARD
100
AcDbAlignedDimension
 13
2.535613585887467
 23
57.24174829516801
 33
0.0
 14
21.53561358588746
 24
57.24174829516801
 34
0.0
100
AcDbRotatedDimension
  0
DIMENSION
  5
13D7
330
18
100
AcDbEntity
  8
dims
100
AcDbDimension
  2
*D8
 10
18.56775707328393
 20
55.196102018705
 30
0.0
 11
12.05168532958569
 21
55.196102018705
 31
0.0
 70
    32
 71
     5
 42
13.03214348739647
  3
STANDARD
100
AcDbAlignedDimension
 13
5.535613585887453
 23
57.24174829516801
 33
0.0
 14
18.56775707328393
 24
57.24174829516801
 34
0.0
100
AcDbRotatedDimension
  0
DIMENSION
  5
13F3
330
18
100
AcDbEntity
  8
dims
100
AcDbDimension
  2
*D9
 10
16.06686358588747
 20
24.76212430773264
 30
0.0
 11
20.66745882398271
 21
24.76212430773264
 31
0.0
 70
    32
 71
     5
 42
8.250000000000021
  3
STANDARD
100
AcDbAlignedDimension
 13
7.816863585887453
 23
22.05951931435006
 33
0.0
 14
16.06686358588747
 24
22.05951931435008
 34
0.0
100
AcDbRotatedDimension
  0
DIMENSION
  5
1401
330
18
100
AcDbEntity
  8
dims
100
AcDbDimension
  2
*D10
 10
19.16061358588746
 20
10.55233158261177
 30
0.0
 11
12.03561358588745
 21
10.55233158261177
 31
0.0
 70
    32
 71
     5
 42
14.25000000000001
  3
STANDARD
100
AcDbAlignedDimension
 13
4.910613585887446
 23
7.293415222041794
 33
0.0
 14
19.16061358588746
 24
7.293415222041794
 34
0.0
100
AcDbRotatedDimension
  0
DIMENSION
  5
140F
330
18
100
AcDbEntity
  8
dims
100
AcDbDimension
  2
*D11
 10
19.97311358588744
 20
-5.772364000778054
 30
0.0
 11
12.03561358588746
 21
-5.772364000778054
 31
0.0
 70
    32
 71
     5
 42
15.87499999999997
  3
STANDARD
100
AcDbAlignedDimension
 13
4.098113585887475
 23
-8.519767214373224
 33
0.0
 14
19.97311358588744
 24
-8.519767214373224
 34
0.0
100
AcDbRotatedDimension
  0
DIMENSION
  5
146E
330
18
100
AcDbEntity
  8
dims
100
AcDbDimension
  2
*D12
 10
15.94186358588747
 20
42.0579968956722
 30
0.0
 11
11.94186358588746
 21
42.0579968956722
 31
0.0
 70
    32
 71
     5
 42
8.000000000000014
  3
STANDARD
100
AcDbAlignedDimension
 13
7.94186358588746
 23
37.26551221836308
 33
0.0
 14
15.94186358588747
 24
37.26551221836308
 34
0.0
100
AcDbRotatedDimension
  0
LINE
  5
147D
330
18
100
AcDbEntity
  8
dims
100
AcDbLine
 10
4.098113585887482
 20
-9.269767214373224
 30
0.0
 11
12.03561358588746
 21
-9.269767214373224
 31
0.0
  0
LINE
  5
147E
330
18
100
AcDbEntity
  8
dims
100
AcDbLine
 10
12.03561358588746
 20
-9.269767214373224
 30
0.0
 11
12.03561358588746
 21
-7.374689687292203
 31
0.0
  0
LINE
  5
1489
330
18
100
AcDbEntity
  8
grille
100
AcDbLine
 10
58.27883469964252
 20
50.49999999999999
 30
0.0
 11
58.52883469964252
 21
50.74999999999999
 31
0.0
  0
LINE
  5
148B
330
18
100
AcDbEntity
  8
grille
100
AcDbLine
 10
77.27883469964251
 20
50.5
 30
0.0
 11
77.02883469964252
 21
50.75
 31
0.0
  0
LINE
  5
148E
330
18
100
AcDbEntity
  8
legs_base
100
AcDbLine
 10
81.77883469964251
 20
-2.527999999999998
 30
0.0
 11
82.02883469964252
 21
-2.777999999999998
 31
0.0
  0
LINE
  5
148F
330
18
100
AcDbEntity
  8
legs_base
100
AcDbLine
 10
53.52883469964251
 20
-2.777999999999998
 30
0.0
 11
53.77883469964252
 21
-2.527999999999998
 31
0.0
  0
LINE
  5
1490
330
18
100
AcDbEntity
  8
end_caps
100
AcDbLine
 10
54.52883469964252
 20
2.972000000000001
 30
0.0
 11
54.77883469964252
 21
3.222000000000001
 31
0.0
  0
LINE
  5
1491
330
18
100
AcDbEntity
  8
end_caps
100
AcDbLine
 10
80.77883469964252
 20
3.222000000000001
 30
0.0
 11
81.02883469964252
 21
2.972000000000001
 31
0.0
  0
LINE
  5
1493
330
18
100
AcDbEntity
  8
end_caps
100
AcDbLine
 10
54.52883469964253
 20
49.50000000000001
 30
0.0
 11
54.77883469964253
 21
49.25000000000001
 31
0.0
  0
ARC
  5
1494
330
18
100
AcDbEntity
  8
end_caps
100
AcDbCircle
 10
80.90383469964251
 20
49.875
 30
0.0
 40
0.125
100
AcDbArc
 50
0.0
 51
90.0
  0
LINE
  5
1495
330
18
100
AcDbEntity
  8
end_caps
100
AcDbLine
 10
81.02883469964252
 20
49.5
 30
0.0
 11
80.77883469964252
 21
49.25
 31
0.0
  0
ARC
  5
1496
330
18
100
AcDbEntity
  8
end_caps
100
AcDbCircle
 10
54.65383469964252
 20
49.875
 30
0.0
 40
0.125
100
AcDbArc
 50
89.99999999999994
 51
180.0000000000007
  0
ARC
  5
1497
330
18
100
AcDbEntity
  8
end_caps
100
AcDbCircle
 10
54.65383469964251
 20
2.597000000000001
 30
0.0
 40
0.125
100
AcDbArc
 50
179.9999999999983
 51
270.0
  0
ARC
  5
1498
330
18
100
AcDbEntity
  8
legs_base
100
AcDbCircle
 10
53.65383469964251
 20
-3.152999999999998
 30
0.0
 40
0.125
100
AcDbArc
 50
180.0
 51
270.0
  0
ARC
  5
1499
330
18
100
AcDbEntity
  8
legs_base
100
AcDbCircle
 10
81.90383469964251
 20
-3.152999999999998
 30
0.0
 40
0.125
100
AcDbArc
 50
270.0
 51
0.0
  0
ARC
  5
149A
330
18
100
AcDbEntity
  8
end_caps
100
AcDbCircle
 10
80.90383469964251
 20
2.597000000000001
 30
0.0
 40
0.125
100
AcDbArc
 50
270.0
 51
0.0
  0
ARC
  5
149B
330
18
100
AcDbEntity
  8
end_caps
100
AcDbCircle
 10
75.84133469964249
 20
2.597000000000001
 30
0.0
 40
0.125
100
AcDbArc
 50
180.0
 51
270.0
  0
ARC
  5
149C
330
18
100
AcDbEntity
  8
end_caps
100
AcDbCircle
 10
59.71633469964253
 20
2.597000000000001
 30
0.0
 40
0.125
100
AcDbArc
 50
270.0
 51
0.0000000000005343
  0
LINE
  5
14C2
330
18
100
AcDbEntity
  8
port
100
AcDbLine
 10
63.68508469964251
 20
49.25
 30
0.0
 11
71.68508469964253
 21
49.25
 31
0.0
  0
LINE
  5
14C3
330
18
100
AcDbEntity
  8
end_caps
100
AcDbLine
 10
63.18508469964252
 20
50.0
 30
0.0
 11
72.18508469964254
 21
50.0
 31
0.0
  0
DIMENSION
  5
14CB
330
18
100
AcDbEntity
  8
dims
100
AcDbDimension
  2
*D13
 10
97.24584753394033
 20
3.221999999999996
 30
0.0
 11
97.24584753394033
 21
26.23600000000001
 31
0.0
 70
    32
 71
     5
 42
46.02800000000001
  3
STANDARD
100
AcDbAlignedDimension
 13
80.02883469964251
 23
49.25
 33
0.0
 14
80.02883469964251
 24
3.222000000000001
 34
0.0
 50
90.0
100
AcDbRotatedDimension
  0
DIMENSION
  5
14D9
330
18
100
AcDbEntity
  8
dims
100
AcDbDimension
  2
*D14
 10
87.68852165241435
 20
-2.528
 30
0.0
 11
87.68852165241435
 21
-0.0279999999999868
 31
0.0
 70
    32
 71
     5
 42
5.0
  3
STANDARD
100
AcDbAlignedDimension
 13
79.52883469964252
 23
2.472000000000001
 33
0.0
 14
79.52883469964252
 24
-2.527999999999998
 34
0.0
 50
90.0
100
AcDbRotatedDimension
  0
DIMENSION
  5
14F5
330
18
100
AcDbEntity
  8
dims
100
AcDbDimension
  2
*D16
 10
44.36364276416435
 20
16.36
 30
0.0
 11
44.36364276416434
 21
32.80500000000001
 31
0.0
 70
    32
 71
     5
 42
32.89
  3
STANDARD
100
AcDbAlignedDimension
 13
55.52883469964251
 23
49.25
 33
0.0
 14
63.68508469964251
 24
16.36
 34
0.0
 50
90.0
100
AcDbRotatedDimension
  0
DIMENSION
  5
1505
330
18
100
AcDbEntity
  8
dims
100
AcDbDimension
  2
*D17
 10
78.2970480697924
 20
-12.72082443311705
 30
0.0
 11
105.6856897558332
 21
-13.74789703279047
 31
0.0
 70
   164
  1
BOLT CIRCLE 15" dia. x 8 holes
 71
     5
 42
7.43749999999995
  3
STANDARD
100
AcDbRadialDimension
 15
73.03794138471747
 25
-17.97993111819195
 35
0.0
 40
0.0
1001
ACAD
1000
DSTYLE
1002
{
1070
   288
1070
     1
1002
}
  0
ENDSEC
  0
SECTION
  2
OBJECTS
  0
DICTIONARY
  5
C
330
0
100
AcDbDictionary
281
     1
  3
ACAD_GROUP
350
D
  3
ACAD_LAYOUT
350
22A
  3
ACAD_MLINESTYLE
350
1B
  3
ACAD_PLOTSETTINGS
350
22B
  3
ACAD_PLOTSTYLENAME
350
228
  3
AcDbVariableDictionary
350
3E2
  0
DICTIONARY
  5
D
102
{ACAD_REACTORS
330
C
102
}
330
C
100
AcDbDictionary
281
     1
  0
DICTIONARY
  5
22A
102
{ACAD_REACTORS
330
C
102
}
330
C
100
AcDbDictionary
281
     1
  3
Layout1
350
22D
  3
Model
350
22C
  0
DICTIONARY
  5
1B
102
{ACAD_REACTORS
330
C
102
}
330
C
100
AcDbDictionary
281
     1
  3
STANDARD
350
1C
  0
DICTIONARY
  5
22B
102
{ACAD_REACTORS
330
C
102
}
330
C
100
AcDbDictionary
281
     1
  0
ACDBDICTIONARYWDFLT
  5
228
102
{ACAD_REACTORS
330
C
102
}
330
C
100
AcDbDictionary
281
     1
  3
Normal
350
229
100
AcDbDictionaryWithDefault
340
229
  0
DICTIONARY
  5
3E2
102
{ACAD_REACTORS
330
C
102
}
330
C
100
AcDbDictionary
281
     1
  3
DIMASSOC
350
3E3
  0
LAYOUT
  5
22D
102
{ACAD_REACTORS
330
22A
102
}
330
22A
100
AcDbPlotSettings
  1

  2
\\BALLUFF_RAS\materials
  4

  6

 40
0.0
 41
0.0
 42
0.0
 43
0.0
 44
0.0
 45
0.0
 46
0.0
 47
0.0
 48
0.0
 49
0.0
140
0.0
141
0.0
142
1.0
143
1.0
 70
   688
 72
     0
 73
     0
 74
     5
  7

 75
    16
147
1.0
148
0.0
149
0.0
100
AcDbLayout
  1
Layout1
 70
     1
 71
     1
 10
0.0
 20
0.0
 11
12.0
 21
9.0
 12
0.0
 22
0.0
 32
0.0
 14
1.000000000000000E+20
 24
1.000000000000000E+20
 34
1.000000000000000E+20
 15
-1.000000000000000E+20
 25
-1.000000000000000E+20
 35
-1.000000000000000E+20
146
0.0
 13
0.0
 23
0.0
 33
0.0
 16
1.0
 26
0.0
 36
0.0
 17
0.0
 27
1.0
 37
0.0
 76
     0
330
15
  0
LAYOUT
  5
22C
102
{ACAD_REACTORS
330
22A
102
}
330
22A
100
AcDbPlotSettings
  1

  2
\\MENKE DESKTOP\LEXMARK
  4
Letter
  6

 40
7.143749713897705
 41
13.4937515258789
 42
7.14373779296875
 43
3.17498779296875
 44
215.8999938964843
 45
279.3999938964843
 46
0.0
 47
0.0
 48
0.0
 49
0.0
140
0.0
141
0.0
142
1.0
143
15.54667790239199
 70
 11952
 72
     0
 73
     1
 74
     1
  7

 75
     0
147
0.0643224234964141
148
1684.025045770059
149
23.10365371169047
100
AcDbLayout
  1
Model
 70
     1
 71
     0
 10
0.0
 20
0.0
 11
12.0
 21
9.0
 12
0.0
 22
0.0
 32
0.0
 14
0.0
 24
0.0
 34
0.0
 15
0.0
 25
0.0
 35
0.0
146
0.0
 13
0.0
 23
0.0
 33
0.0
 16
1.0
 26
0.0
 36
0.0
 17
0.0
 27
1.0
 37
0.0
 76
     0
330
18
  0
MLINESTYLE
  5
1C
102
{ACAD_REACTORS
330
1B
102
}
330
1B
100
AcDbMlineStyle
  2
STANDARD
 70
     0
  3

 62
   256
 51
90.0
 52
90.0
 71
     2
 49
0.5
 62
   256
  6
BYLAYER
 49
-0.5
 62
   256
  6
BYLAYER
  0
ACDBPLACEHOLDER
  5
229
102
{ACAD_REACTORS
330
228
102
}
330
228
  0
DICTIONARYVAR
  5
3E3
102
{ACAD_REACTORS
330
3E2
102
}
330
3E2
100
DictionaryVariables
280
     0
  1
1
  0
ENDSEC
  0
EOF

